Loading...
Error

Удивительный мир крови / The Wonderful World of Blood with Michael Mosley [2015 г., документальный, научно-познавательный, HDTVRip] Dub

Статистика раздачи
Размер:  731 MB   |    Зарегистрирован:  1 год 2 месяца   |    Скачан:  2 раза

Полного источника не было: 1 год

Сидов:  0  |  0 KB/s  ]   Личеров:  0  |  0 KB/s  ]

* - сиды/пиры с внешних источников

   
 
Автор Сообщение

ARI71 Пол:Муж

09-Май-2016 15:06

Удивительный мир крови / The Wonderful World of Blood with Michael Mosley


Год выпуска: 2015
Жанр: документальный, научно-познавательный
Страна: Великобритания BBC Scotland Scince Production
Режиссер: Нэйтан Бадд
Сюжет фильма:
В каждом из нас восемь пинт необыкновенной жидкости - крови. Это примерно 10% веса нашего тела. Кровь играет огромную роль в жизнеобеспечении организма. Но что мы действительно знаем об этом липком красном веществе и его таинственной животворной силе?
Качество видео: HDTVRip

Продолжительность: 00:51:05
Формат: AVI
Видео: XviD, 720x400, ~1800 kbps
Аудио: русский, (дублированный), AC3 2.0, ~192.00 kbps

Код:

Общее
Полное имя : D:\BBC_The Wonderful World of Blood.HDTVRip.by RockeT [Virtus & KazTorrentS].avi
Формат : AVI
Формат/Информация : Audio Video Interleave
Размер файла : 731 Мбайт
Продолжительность : 51 м.
Общий поток : 2002 Кбит/сек
Программа кодирования : VirtualDubMod 1.5.10.3 | www.virtualdub-fr.org || (build 2550/release)
Библиотека кодирования : VirtualDubMod build 2550/release

Видео
Идентификатор : 0
Формат : MPEG-4 Visual
Профиль формата : Advanced Simple@L5
Параметр BVOP формата : 1
Параметр QPel формата : Нет
Параметр GMC формата : Без точки перехода
Параметр матрицы формата : Default (MPEG)
Идентификатор кодека : XVID
Идентификатор кодека/Подсказка : XviD
Продолжительность : 51 м.
Битрейт : 1800 Кбит/сек
Ширина : 720 пикселей
Высота : 400 пикселей
Соотношение сторон : 16:9
Частота кадров : 25,000 кадров/сек
Цветовое пространство : YUV
Субдискретизация насыщенности : 4:2:0
Битовая глубина : 8 бит
Тип развёртки : Прогрессивная
Метод сжатия : С потерями
Бит/(Пиксели*Кадры) : 0.250
Размер потока : 658 Мбайт (90%)
Библиотека кодирования : XviD 1.2.1 (UTC 2008-12-04)

Аудио
Идентификатор : 1
Формат : AC-3
Формат/Информация : Audio Coding 3
Расширение режима : CM (complete main)
Параметр Endianness формата : Big
Идентификатор кодека : 2000
Продолжительность : 51 м.
Вид битрейта : Постоянный
Битрейт : 192 Кбит/сек
Каналы : 2 канала
Расположение каналов : Front: L R
Частота : 48,0 КГц
Метод сжатия : С потерями
Размер потока : 70,2 Мбайт (10%)
Выравнивание : Разделение по промежуткам
Продолжительность промежутка : 40 мс. (1,00 видеокадр)
Время предзагрузки промежутка : 500 мс.
picpicpicpicpic
Для увеличения картинки щелкните мышкой по превью

Этот торрент недоступен для скачивания без регистрации, однако доступен по публичной magnet-ссылке (источники с публичных трекеров). Перед использованием ссылки прочтите, пожалуйста Пользовательское соглашение, а также как можно дольше оставайтесь на раздаче! Для того, чтобы скачать сам торрент-файл (который видит больше источников), а также для того, чтобы поблагодарить релизера, вам необходимо зарегистрироваться. Если регистрироваться лень - вы можете также попробовать скачать релиз по нашим партнерским ссылкам ниже.

[underverse.su].t66003.torrent
Трекер: Зарегистрирован   [ 09.05.2016 15:06 ]  

Статус: проверено (by матроскин at 09.05.2016 21:07)
Поблагодарили: 1 человек
Тип торрента: публичный - доступные источники с открытых трекеров: 
Размер: 731 MB (занимает 0,16 DVDR, для записи нужно 1 болванка DVDR/RW)
 
 
Похожие темы
Форум Тема Автор Торрент Отв. Посл. сооб.
Зарубежное кино [DVDRip, Low-Res HDRip, и т.д.] Удивительная жизнь учителей / Реальная жизнь учителей / La Vraie vie des profs (Эммануэль Клотц, Альберт Перейра-Лазаро) [2013 г., комедия, HDRip] MVO makkol
2 | 0

0 | 545

5

31.08.2016 14:04

Кино СССР Удивительные приключения Дениса Кораблева (Игорь Пушкарев, Игорь Добролюбов, Виталий Дудин) [1979 г., детский, семейный, DVDRip] 90ytr90
2 | 0

0 | 1827

7

21.10.2013 18:24

National Geographic Удивительные пауки / Incredible spiders [2015 г., документальный, научно-познавательный, HDTVRip 720p] Dub + Original (Eng) ARI71
0 | 0

0 | 1209

5

23.05.2016 21:24

National Geographic Удивительные насекомые / Incredible Insects [2015 г., документальный, научно-познавательный, HDTVRip] VO ARI71
1 | 0

0 | 723

4

08.06.2016 09:11

National Geographic Удивительные пауки / Incredible spiders (Джессика Коннелл) [2015 г., документальный, природа, фауна, HDTV 1080i] Dub ARI71
6 | 0

0 | 598

4

13.07.2016 16:20

National Geographic Удивительные пауки / Incredible spiders (Джессика Коннелл) [2015 г., документальный, природа, фауна, HDTVRip-AVC] Dub ARI71
1 | 0

0 | 591

3

14.07.2016 18:14

BBC Удивительный мир крови / The Wonderful World of Blood with Michael Mosley [2015 г., документальный, научно-познавательный, HDTVRip 720p] Dub ARI71
1 | 0

0 | 880

11

26.04.2016 10:22

Научно-популярные фильмы Удивительные копатели / Incredible Diggers [2015 г., документальный, флора, фауна, HDTVRip] VO ARI71
3 | 1

0 | 502

1

10.06.2016 12:27

Другие фильмы Удивительные яхты / Extreme Yachts (1 сезон: 1-6 серий из 6) / (Дэнис Зерулл, Энди Робинсон) [2012 г., документальный, инженерия, дизайн, HDTVRip 720p] DVO ARI71
5 | 1

0 | 538

4

23.09.2016 14:27

Зарубежное кино [HDDVDRip / BDRip / WEB-DL / HDTV 1080/720р] Удивительная жизнь учителей / Реальная жизнь учителей / La Vraie vie des profs (Эммануэль Клотц, Альберт Перейра-Лазаро) [2013 г., комедия, BDRip 720p] MVO + Original makkol
1 | 0

0 | 411

0

31.08.2016 14:44


Яндекс.Метрика powered by Sphinx


В Н И М А Н И Е
Сайт не распространяет и не хранит электронные версии произведений, а лишь бесплатно и без коммерческой выгоды (не требуя взамен платы,
SMS и т.д.) предоставляет доступ к создаваемому пользователями каталогу ссылок на торрент-файлы, которые содержат только списки хеш-сумм.
Убедительная просьба с жалобами обращаться напрямую к пользователю, разместившему торрент файл.

Вверх