Loading...
Error

Ольга Волкова. Не хочу быть звездой [2014 г., документальный, биография, искусство, IPTVRip]

Статистика раздачи
Размер:  560 MB   |    Зарегистрирован:  6 месяцев   |    Скачан:  0 раз

Полного источника не было: 6 месяцев

Сидов:  0  |  0 KB/s  ]   Личеров:  0  |  0 KB/s  ]

* - сиды/пиры с внешних источников

   
 
Автор Сообщение

ARI71 Пол:Муж

09-Май-2016 13:55

Ольга Волкова. Не хочу быть звездой


Год выпуска: 2014
Жанр: документальный, биография, искусство
Страна: Россия «Идея»
Режиссер: Егор Шарапов
В ролях: Ольга Волкова
Сюжет фильма:
На одном из юбилеев друзья наградили Ольгу Волкову медалью с девизом "Вопреки всему!". И действительно, на пути к признанию и славе ей пришлось пройти нелёгкие испытания и преодолеть множество препятствий. Фильм рассказывает о том, как храбро эта маленькая женщина сражалась за своё место в профессии, как "королева эпизода" сумела стать большой актрисой, и почему она упорно отказывается считать себя звездой. Участники: Ольга Волкова, Владимир Ховралёв – муж, Иван Волков – сын, Яна и Максим – внуки, Олег Басилашвили, Александр Ширвиндт, Людмила Чурсина, Елена Сафонова, Чулпан Хаматова.

О́льга Влади́мировна Во́лкова (в девичестве: Политова, род. 15 апреля 1939 года, Ленинград, СССР) — советская и российская актриса театра и кино. Народная артистка России (1993)

Качество видео: IPTVRip

Продолжительность: 00:46:03
Формат: AVI
Видео: XviD, 704x400, ~1499 kbps
Аудио: русский, (оригинал), MP3 2.0, ~192.00 kbps

Код:

Общее
Полное имя : D:\Ольга Волкова. Не хочу быть звездой (DaVinci).avi
Формат : AVI
Формат/Информация : Audio Video Interleave
Размер файла : 560 Мбайт
Продолжительность : 46 м.
Общий поток : 1700 Кбит/сек
Библиотека кодирования : VirtualDub build 35491/release

Видео
Идентификатор : 0
Формат : MPEG-4 Visual
Профиль формата : Advanced Simple@L5
Параметр BVOP формата : 2
Параметр QPel формата : Нет
Параметр GMC формата : Без точки перехода
Параметр матрицы формата : Default (MPEG)
Режим смешивания : Сжатый битовый поток
Идентификатор кодека : XVID
Идентификатор кодека/Подсказка : XviD
Продолжительность : 46 м.
Битрейт : 1499 Кбит/сек
Ширина : 704 пикселя
Высота : 400 пикселей
Соотношение сторон : 16:9
Частота кадров : 25,000 кадров/сек
Цветовое пространство : YUV
Субдискретизация насыщенности : 4:2:0
Битовая глубина : 8 бит
Тип развёртки : Прогрессивная
Метод сжатия : С потерями
Бит/(Пиксели*Кадры) : 0.213
Размер потока : 494 Мбайт (88%)
Библиотека кодирования : XviD 73

Аудио
Идентификатор : 1
Формат : MPEG Audio
Версия формата : Version 1
Профиль формата : Layer 3
Режим : Joint stereo
Идентификатор кодека : 55
Идентификатор кодека/Подсказка : MP3
Продолжительность : 46 м.
Вид битрейта : Постоянный
Битрейт : 192 Кбит/сек
Каналы : 2 канала
Частота : 48,0 КГц
Метод сжатия : С потерями
Размер потока : 63,2 Мбайт (11%)
Выравнивание : Разделение по промежуткам
Продолжительность промежутка : 40 мс. (1,00 видеокадр)
Время предзагрузки промежутка : 500 мс.
picpicpicpic
Для увеличения картинки щелкните мышкой по превью

Этот торрент недоступен для скачивания без регистрации, однако доступен по публичной magnet-ссылке (источники с публичных трекеров). Перед использованием ссылки прочтите, пожалуйста Пользовательское соглашение, а также как можно дольше оставайтесь на раздаче! Для того, чтобы скачать сам торрент-файл (который видит больше источников), а также для того, чтобы поблагодарить релизера, вам необходимо зарегистрироваться. Если регистрироваться лень - вы можете также попробовать скачать релиз по нашим партнерским ссылкам ниже.

[underverse.su].t66000.torrent
Трекер: Зарегистрирован   [ 09.05.2016 13:55 ]  

Статус: проверено (by матроскин at 09.05.2016 21:07)
Поблагодарили: пока никто не поблагодарил...
Тип торрента: публичный - доступные источники с открытых трекеров: 
Размер: 560 MB (занимает 0,12 DVDR, для записи нужно 1 болванка DVDR/RW)
 
 

Яндекс.Метрика powered by Sphinx


В Н И М А Н И Е
Сайт не распространяет и не хранит электронные версии произведений, а лишь бесплатно и без коммерческой выгоды (не требуя взамен платы,
SMS и т.д.) предоставляет доступ к создаваемому пользователями каталогу ссылок на торрент-файлы, которые содержат только списки хеш-сумм.
Убедительная просьба с жалобами обращаться напрямую к пользователю, разместившему торрент файл.

Вверх