Loading...
Error

Девушка-король / Дева на троне / The Girl King / Queen Kristina (Мика Каурисмяки) [2015 г., драма, мелодрама, биография, история, HDRip] VO

Статистика раздачи
Размер:  1,46 GB   |    Зарегистрирован:  6 месяцев   |    Скачан:  6 раз

Полного источника не было: 3 месяца 4 дня

Сидов:  0  |  0 KB/s  ]   Личеров:  0  |  0 KB/s  ]

* - сиды/пиры с внешних источников

   
 
Автор Сообщение

makkol Пол:Муж

08-Май-2016 13:02

Девушка-король / Дева на троне
The Girl King / Queen Kristina


Год выпуска: 2015
Жанр: драма, мелодрама, биография, история
Производство: Финляндия , Германия , Канада , Швеция , Франция [Anagram Produktion, Galafilm Productions Inc.]
Режиссер: Мика Каурисмяки
В ролях: Малин Буска, Сара Гадон, Микаэл Нюквист, Лукас Брайант, Лаура Бирн, Ипполит Жирардо, Петер Ломайер, Франсуа Арно, Мартина Гедек, Патрик Бошо
Сюжет фильма:
Фильм — биография шведской королевы Кристины (1626 — 1689). Твердый характер сочетался в ней с ненасытной жаждой знаний. Она требовала немедленного исполнения всех своих желаний и была склонна к экстравагантным поступкам, шокировавшим ее окружение. Все время на престоле она враждовала с Советом, стремившимся ограничить власть монарха. Совет желал маленькую победоносную войну, а королева решила строить в Стокгольме самую большую библиотеку в Европе. Совет требовал от нее выйти замуж, но Кристина заявляла, что не желает иметь детей. Возмущенная поведением королевы аристократия решает отстранить ее от власти…

  • Мировая премьера: 4 сентября 2015


Качество видео: HDRip

Продолжительность: 01:46:10
Формат: AVI
Видео: XviD, 720x304 (2.35:1), 24.000 fps, 1516 kbps
Аудио: русский, любительский одноголосый закадровый (Вадим Назаров), AC3 5.1, 48 kHz, 448 kbps

Код:

Формат                                   : AVI
Формат/Информация                        : Audio Video Interleave
Размер файла                             : 1,46 Гбайт
Продолжительность                        : 1 ч. 45 м.
Общий поток                              : 1974 Кбит/сек
Программа кодирования                    : VirtualDubMod 1.5.10.2 (build 2540/release)
Библиотека кодирования                   : VirtualDubMod build 2540/release

Видео
Идентификатор                            : 0
Формат                                   : MPEG-4 Visual
Профиль формата                          : Advanced Simple@L5
Параметр BVOP формата                    : 1
Параметр QPel формата                    : Нет
Параметр GMC формата                     : Без точки перехода
Параметр матрицы формата                 : Default (MPEG)
Идентификатор кодека                     : XVID
Идентификатор кодека/Подсказка           : XviD
Продолжительность                        : 1 ч. 45 м.
Битрейт                                  : 1516 Кбит/сек
Ширина                                   : 720 пикселей
Высота                                   : 304 пикселя
Соотношение сторон                       : 2,35:1
Частота кадров                           : 24,000 кадра/сек
Цветовое пространство                    : YUV
Субдискретизация насыщенности            : 4:2:0
Битовая глубина                          : 8 бит
Тип развёртки                            : Прогрессивная
Метод сжатия                             : С потерями
Бит/(Пиксели*Кадры)                      : 0.289
Размер потока                            : 1,12 Гбайт (77%)
Библиотека кодирования                   : XviD 67

Аудио
Идентификатор                            : 1
Формат                                   : AC-3
Формат/Информация                        : Audio Coding 3
Расширение режима                        : CM (complete main)
Параметр Endianness формата              : Big
Идентификатор кодека                     : 2000
Продолжительность                        : 1 ч. 45 м.
Вид битрейта                             : Постоянный
Битрейт                                  : 448 Кбит/сек
Каналы                                   : 6 каналов
Расположение каналов                     : Front: L C R, Side: L R, LFE
Частота                                  : 48,0 КГц
Частота кадров                           : 31,250 кадров/сек (1536 spf)
Метод сжатия                             : С потерями
Размер потока                            : 339 Мбайт (23%)
Выравнивание                             : Разделение по промежуткам
Продолжительность промежутка             : 42  мс. (1,00 видеокадр)
Время предзагрузки промежутка            : 500  мс.
Заголовок                                : Nazarov
Автор релиза: ylnian

picpicpicpicpic
Для увеличения картинки щелкните мышкой по превью

Этот торрент недоступен для скачивания без регистрации, однако доступен по публичной magnet-ссылке (источники с публичных трекеров). Перед использованием ссылки прочтите, пожалуйста Пользовательское соглашение, а также как можно дольше оставайтесь на раздаче! Для того, чтобы скачать сам торрент-файл (который видит больше источников), а также для того, чтобы поблагодарить релизера, вам необходимо зарегистрироваться. Если регистрироваться лень - вы можете также попробовать скачать релиз по нашим партнерским ссылкам ниже.

[underverse.su].t65980.torrent
Трекер: Зарегистрирован   [ 08.05.2016 13:02 ]  

Статус: проверено (by матроскин at 08.05.2016 13:46)
Поблагодарили: пока никто не поблагодарил...
Тип торрента: публичный - доступные источники с открытых трекеров: 
Размер: 1,46 GB (занимает 0,33 DVDR, для записи нужно 1 болванка DVDR/RW)
 
 
Похожие темы
Форум Тема Автор Торрент Отв. Посл. сооб.
Зарубежное кино [HDDVDRip / BDRip / WEB-DL / HDTV 1080/720р] Девушка-король / Дева на троне / The Girl King / Queen Kristina (Мика Каурисмяки) [2015 г., драма, мелодрама, биография, история, BDRip 720p] VO (Назаров) + VO (datynet) + Original + Subs makkol
3 | 2

0 | 872

4

08.05.2016 13:19


Яндекс.Метрика powered by Sphinx


В Н И М А Н И Е
Сайт не распространяет и не хранит электронные версии произведений, а лишь бесплатно и без коммерческой выгоды (не требуя взамен платы,
SMS и т.д.) предоставляет доступ к создаваемому пользователями каталогу ссылок на торрент-файлы, которые содержат только списки хеш-сумм.
Убедительная просьба с жалобами обращаться напрямую к пользователю, разместившему торрент файл.

Вверх