Loading...
Error

Я – учитель (Сергей Мокрицкий) [2016 г., военный, драма, SatRip]

Статистика раздачи
Размер:  1,25 GB   |    Зарегистрирован:  7 месяцев   |    Скачан:  13 раз

Полного источника не было: 20 часов

Сидов:  0  |  0 KB/s  ]   Личеров:  0  |  0 KB/s  ]

* - сиды/пиры с внешних источников

   
 
Автор Сообщение

makkol Пол:Муж

08-Май-2016 12:41

Я – учитель


Год выпуска: 2016
Жанр: военный, драма
Производство: Россия [Компания "Новые люди"]
Режиссер: Сергей Мокрицкий
В ролях: Александр Ковтунец, Юлия Пересильд, Андрей Смоляков, Борис Каморзин, Филипп Рейнхардт, Сергей Походаев, Владислав Абашин, Светлана Осадченко
Сюжет фильма:
Жить в непростых военных условиях простому сельскому учителю Павлу Зубову давала вера в свой долг — учить детей. Не важно где, не важно кто они — это его призвание, его крест. Вера в любовь и семью, в простые человеческие ценности. Но, в одночасье, череда событий в корне меняет его жизнь, возвращая в реальный мир. В мир, где идёт война, где враг демонстрирует своё истинное лицо, и где невозможно бездействовать, оставаясь тихим учителем, надо бороться за свою семью, любовь, Родину, за свои идеалы и принципы. Перед ним встает непростой духовный и нравственный выбор — либо выживать и приспосабливаться, либо не предавать самого себя и своих близких.

  • Мировая премьера: 18 апреля 2016
  • Российская премьера: 27 апреля 2016


Качество видео: SatRip

Продолжительность: 01:25:45
Формат: AVI
Видео: XviD, 720x400 (16:9), 25.000 fps, 1881 kbps
Аудио: русский, оригинал, MP3 2.0, 48 kHz, 192 kbps

Код:

Формат                                   : AVI
Формат/Информация                        : Audio Video Interleave
Размер файла                             : 1,25 Гбайт
Продолжительность                        : 1 ч. 25 м.
Общий поток                              : 2086 Кбит/сек
Программа кодирования                    : Lavf54.63.104
Библиотека кодирования                   : Boilsoft AVI tool build 30012/release

Видео
Идентификатор                            : 0
Формат                                   : xvid
Идентификатор кодека                     : xvid
Продолжительность                        : 1 ч. 25 м.
Битрейт                                  : 1881 Кбит/сек
Ширина                                   : 720 пикселей
Высота                                   : 400 пикселей
Соотношение сторон                       : 16:9
Частота кадров                           : 25,000 кадров/сек
Бит/(Пиксели*Кадры)                      : 0.261
Размер потока                            : 1,13 Гбайт (90%)

Аудио
Идентификатор                            : 1
Формат                                   : MPEG Audio
Версия формата                           : Version 1
Профиль формата                          : Layer 3
Режим                                    : Joint stereo
Расширение режима                        : MS Stereo
Идентификатор кодека                     : 55
Идентификатор кодека/Подсказка           : MP3
Продолжительность                        : 1 ч. 25 м.
Вид битрейта                             : Постоянный
Битрейт                                  : 192 Кбит/сек
Каналы                                   : 2 канала
Частота                                  : 48,0 КГц
Метод сжатия                             : С потерями
Размер потока                            : 118 Мбайт (9%)
Выравнивание                             : Соединение по промежуткам
Продолжительность промежутка             : 24  мс. (0,60 видеокадр)
Время предзагрузки промежутка            : 504  мс.
picpicpicpicpic
Для увеличения картинки щелкните мышкой по превью

Этот торрент недоступен для скачивания без регистрации, однако доступен по публичной magnet-ссылке (источники с публичных трекеров). Перед использованием ссылки прочтите, пожалуйста Пользовательское соглашение, а также как можно дольше оставайтесь на раздаче! Для того, чтобы скачать сам торрент-файл (который видит больше источников), а также для того, чтобы поблагодарить релизера, вам необходимо зарегистрироваться. Если регистрироваться лень - вы можете также попробовать скачать релиз по нашим партнерским ссылкам ниже.

[underverse.su].t65978.torrent
Трекер: Зарегистрирован   [ 08.05.2016 12:41 ]  

Статус: проверено (by матроскин at 08.05.2016 13:07)
Поблагодарили: пока никто не поблагодарил...
Тип торрента: публичный - доступные источники с открытых трекеров: 
Размер: 1,25 GB (занимает 0,29 DVDR, для записи нужно 1 болванка DVDR/RW)
 
 
Похожие темы
Форум Тема Автор Торрент Отв. Посл. сооб.
Наше кино [DVDRip, Low-Res HDRip, и т.д.] Я – учитель (Сергей Мокрицкий) [2016 г., военный, драма, HDTVRip] 90ytr90
66 | 1

0 | 521

8

10.05.2016 11:38

Наше кино [DVDRip, Low-Res HDRip, и т.д.] Я – учитель (Сергей Мокрицкий) [2016 г., военный, драма, HDTVRip-AVC] 90ytr90
253 | 8

0 | 514

9

10.05.2016 11:45

Наше кино [DVDRip, Low-Res HDRip, и т.д.] Я – учитель (Сергей Мокрицкий) [2016 г., военный, драма, HDTVRip] 90ytr90
23 | 3

0 | 598

14

10.05.2016 12:24

Наше кино [HDDVDRip / BDRip / WEB-DL / HDTV 1080/720р] Я – учитель (Сергей Мокрицкий) [2015 г., военный, драма, HDTV 720p] 90ytr90
19 | 0

0 | 539

5

10.05.2016 11:56

# Наше кино [HDDVDRip / BDRip / WEB-DL / HDTV 1080/720р] Я – учитель (Сергей Мокрицкий) [2015 г., военный, драма, HDTV 1080i] 90ytr90
34 | 1

0 | 523

7

10.05.2016 12:10


Яндекс.Метрика powered by Sphinx


В Н И М А Н И Е
Сайт не распространяет и не хранит электронные версии произведений, а лишь бесплатно и без коммерческой выгоды (не требуя взамен платы,
SMS и т.д.) предоставляет доступ к создаваемому пользователями каталогу ссылок на торрент-файлы, которые содержат только списки хеш-сумм.
Убедительная просьба с жалобами обращаться напрямую к пользователю, разместившему торрент файл.

Вверх