Loading...
Error

Бренды Советской эпохи. Советское телевидение [2015 г., документальный, HDTVRip]

Статистика раздачи
Размер:  105 MB   |    Зарегистрирован:  6 месяцев   |    Скачан:  1 раз
Сидов:  1  |  0 KB/s  ]   Личеров:  0  |  0 KB/s  ]

* - сиды/пиры с внешних источников

   
 
Автор Сообщение

матроскин Пол:Муж

08-Май-2016 10:34

Бренды Советской эпохи. Советское телевидение


Год выпуска: 2015
Жанр: документальный
Страна: Россия
Выпущено: Красное Тв
Сюжет фильма:
1 мая 1931 года состоялась первая в СССР экспериментальная телевизионная передача механического телевидения, без звука. 1 октября 1931 года Московский радиоцентр на средних волнах запустил первый в Советском Союзе телеканал, вещавший ежедневно со звуком по 30 минут в день. Москва вела передачи 12 раз в месяц по 60 минут.

Центральное телевидение Гостелерадио СССР (ЦТ СССР) — советская государственная организация в составе Государственного комитета СССР по телевидению и радиовещанию, отвечавшая за всесоюзное и частично региональное телевизионное вещание. Существовала наряду с республиканским и местным (областным, городским) телевидением с 1951 до 1991 год. В связи с распадом СССР прекратила своё существование. На базе Центрального телевидения была сформирована Российская государственная телевизионная и радиовещательная компания «Останкино».
Качество видео: HDTVRip

Продолжительность: 00:05:03
Формат: avi
Видео: DivX 4, 854x480, 2632 kbps
Аудио: русский, оригинал, MP3 2.0, 256 kbps

Код:

General
Complete name                    : C:\Users\Ohrana\Desktop\Бренды Советское телевидение.avi
Format                           : AVI
Format/Info                      : Audio Video Interleave
File size                        : 105 MiB
Duration                         : 5mn 3s
Overall bit rate                 : 2 901 Kbps
Writing application              : Lavf52.93.0

Video
ID                               : 0
Format                           : MPEG-4 Visual
Format profile                   : Simple@L1
Format settings, BVOP            : No
Format settings, QPel            : No
Format settings, GMC             : No warppoints
Format settings, Matrix          : Default (H.263)
Codec ID                         : DIVX
Codec ID/Info                    : Project Mayo
Codec ID/Hint                    : DivX 4
Duration                         : 5mn 3s
Bit rate                         : 2 632 Kbps
Width                            : 854 pixels
Height                           : 480 pixels
Display aspect ratio             : 16/9
Frame rate                       : 25.000 fps
Resolution                       : 24 bits
Colorimetry                      : 4:2:0
Scan type                        : Progressive
Bits/(Pixel*Frame)               : 0.257
Stream size                      : 95.1 MiB (91%)
Writing library                  : Lavc52.108.0

Audio
ID                               : 1
Format                           : MPEG Audio
Format version                   : Version 1
Format profile                   : Layer 3
Codec ID                         : 55
Codec ID/Hint                    : MP3
Duration                         : 5mn 2s
Bit rate mode                    : Constant
Bit rate                         : 256 Kbps
Channel(s)                       : 2 channels
Sampling rate                    : 44.1 KHz
Resolution                       : 16 bits
Stream size                      : 9.25 MiB (9%)
Alignment                        : Aligned on interleaves
Interleave, duration             : 26 ms (0.65 video frame)
Interleave, preload duration     : 52 ms
Writing library                  : LAME3.98.4

picpicpicpicpicpic
Для увеличения картинки щелкните мышкой по превью

Этот торрент недоступен для скачивания без регистрации, однако доступен по публичной magnet-ссылке (источники с публичных трекеров). Перед использованием ссылки прочтите, пожалуйста Пользовательское соглашение, а также как можно дольше оставайтесь на раздаче! Для того, чтобы скачать сам торрент-файл (который видит больше источников), а также для того, чтобы поблагодарить релизера, вам необходимо зарегистрироваться. Если регистрироваться лень - вы можете также попробовать скачать релиз по нашим партнерским ссылкам ниже.

[underverse.su].t65972.torrent
Трекер: Зарегистрирован   [ 08.05.2016 10:34 ]  

Статус: проверено (by матроскин at 08.05.2016 10:34)
Поблагодарили: пока никто не поблагодарил...
Тип торрента: публичный - доступные источники с открытых трекеров: 
Размер: 105 MB (занимает 0,02 DVDR, для записи нужно 1 болванка DVDR/RW)
 
 
Похожие темы
Форум Тема Автор Торрент Отв. Посл. сооб.
Исторические фильмы Бренды Советской эпохи. Мой адрес Советский Союз. [2013 г., документальный, HDTVRip] матроскин
1 | 0

1 | 830

29

27.02.2014 13:03

Исторические фильмы Бренды Советской Эпохи [2013, документальный, TVRip] матроскин
1 | 0

3 | 828

41

14.05.2013 19:23

Исторические фильмы Бренды Советской Эпохи. Московский метрополитен. [2013 г., документальный, короткометражный HDTVRip] матроскин
1 | 0

1 | 1179

24

09.05.2013 21:05

Исторические фильмы Бренды Советской эпохи. Черная икра. [2013 г., документальный, короткометражный HDTVRip] матроскин
1 | 0

2 | 1196

19

20.07.2013 13:34

Исторические фильмы Бренды Советской эпохи. Гитара. [2013 г., документальный, короткометражный, HDTVRip] матроскин
1 | 0

1 | 1059

13

12.05.2013 11:50

Исторические фильмы Бренды Советской эпохи. Большое новоселье [2013 г., исторический, документальный, HDTVRip] матроскин
1 | 0

2 | 976

25

01.08.2013 20:07

Исторические фильмы Бренды Советской эпохи. Мопеды [2013 г., исторический, документальный, HDTVRip] матроскин
1 | 0

1 | 1013

26

11.07.2013 08:55

Исторические фильмы Бренды Советской эпохи. Московские высотки. [2013 г., исторический, документальный, HDTVRip] матроскин
1 | 0

3 | 1064

24

21.07.2014 13:02

Исторические фильмы Бренды Советской эпохи. Советские часы [2013 г., документальный, исторический, HDTVRip] матроскин
1 | 0

2 | 1821

31

12.10.2013 05:00

Исторические фильмы Бренды Советской эпохи. Столичная водка [2013 г., документальный, исторический, HDTVRip] матроскин
1 | 0

1 | 2281

36

09.10.2013 10:54

матроскин Пол:Муж

08-Май-2016 10:40







добавлено спустя 1 минута 39 секунд:


Яндекс.Метрика powered by Sphinx


В Н И М А Н И Е
Сайт не распространяет и не хранит электронные версии произведений, а лишь бесплатно и без коммерческой выгоды (не требуя взамен платы,
SMS и т.д.) предоставляет доступ к создаваемому пользователями каталогу ссылок на торрент-файлы, которые содержат только списки хеш-сумм.
Убедительная просьба с жалобами обращаться напрямую к пользователю, разместившему торрент файл.

Вверх