Loading...
Error

Бренды Советской эпохи. Первомай. [2016 г., документальный, HDTVRip]

Статистика раздачи
Размер:  136 MB   |    Зарегистрирован:  7 месяцев   |    Скачан:  1 раз

Полного источника не было: 3 часа

Сидов:  0  |  0 KB/s  ]   Личеров:  0  |  0 KB/s  ]

* - сиды/пиры с внешних источников

   
 
Автор Сообщение

матроскин Пол:Муж

08-Май-2016 08:39

Бренды Советской эпохи. Первомай.


Год выпуска: 2016
Жанр: документальный
Страна: Россия
Выпущено: Красное Тв
Сюжет фильма:
Долгие годы Первое Мая в Советском Союзе оставался одним из самых главных государственных праздников. В первую очередь, праздник демонстрировал гордость достижениями Страны Советов и память о тех, кто отдал все силы в борьбе за создание коммунистического общества. А после Второй мировой войны, когда была создана мировая социалистическая система, 1 Мая в СССР стали отмечать как день борьбы за социализм и коммунизм.

В СССР первомайские демонстрации проводились ежегодно. Конечно, сейчас уже не встретишь такие парады и демонстрации, которые проходили 1 Мая в советские времена. Люди всех возрастов готовились к этому празднику заранее: доставали свои лучшие наряды, надували воздушные шары, за несколько недель до заветной даты изготавливали плакаты, транспаранты, бумажные цветы и фигурки голубей, которые ассоциировались с символом мира во многих странах. Детей взрослые сажали на шею, и те, размахивая шариками и флажками, радостно взирали с высоты на яркие праздничные колонны. Во время демонстрации звучали песни под гармошки и баяны, а на коротких остановках устраивались импровизированные танцы с частушками и прибаутками. А дома уставших, но счастливых демонстрантов уже ждали богато накрытые столы с традиционным праздничным угощением. В общем, люди искренне радовались Первомаю и веселились по полной программе.

Последним первомайским праздником в Советском Союзе стала демонстрация 1990 года. В 1992 году Первомай был переименован в праздник весны и труда. Но всё же демонстрации с транспарантами, митинги, с помощью которых люди высказывают свою политическую позицию, и сегодня остаются традиционно неизменными. Многие с сожалением вспоминают об этом празднике, так как все атрибуты торжества остались далеко в прошлом, а бесконечные колонны демонстрантов живут лишь в памяти рождённых в СССР.
Качество видео: HDTVRip

Продолжительность: 00:05:03
Формат: avi
Видео: DivX 4, 854x480, 3489 kbps
Аудио: русский, оригинал, MP3 2.0, 256 kbps

Код:

General
Complete name                    : C:\Users\Ohrana\Desktop\Бренды Первомай.avi
Format                           : AVI
Format/Info                      : Audio Video Interleave
File size                        : 136 MiB
Duration                         : 5mn 3s
Overall bit rate                 : 3 757 Kbps
Writing application              : Lavf52.93.0

Video
ID                               : 0
Format                           : MPEG-4 Visual
Format profile                   : Simple@L1
Format settings, BVOP            : No
Format settings, QPel            : No
Format settings, GMC             : No warppoints
Format settings, Matrix          : Default (H.263)
Codec ID                         : DIVX
Codec ID/Info                    : Project Mayo
Codec ID/Hint                    : DivX 4
Duration                         : 5mn 3s
Bit rate                         : 3 489 Kbps
Width                            : 854 pixels
Height                           : 480 pixels
Display aspect ratio             : 0.078
Frame rate                       : 25.000 fps
Resolution                       : 24 bits
Colorimetry                      : 4:2:0
Scan type                        : Progressive
Bits/(Pixel*Frame)               : 0.340
Stream size                      : 126 MiB (93%)
Writing library                  : Lavc52.108.0

Audio
ID                               : 1
Format                           : MPEG Audio
Format version                   : Version 1
Format profile                   : Layer 3
Codec ID                         : 55
Codec ID/Hint                    : MP3
Duration                         : 5mn 3s
Bit rate mode                    : Constant
Bit rate                         : 256 Kbps
Channel(s)                       : 2 channels
Sampling rate                    : 44.1 KHz
Resolution                       : 16 bits
Stream size                      : 9.25 MiB (7%)
Alignment                        : Aligned on interleaves
Interleave, duration             : 26 ms (0.65 video frame)
Writing library                  : LAME3.98.4

picpicpicpicpicpic
Для увеличения картинки щелкните мышкой по превью

Этот торрент недоступен для скачивания без регистрации, однако доступен по публичной magnet-ссылке (источники с публичных трекеров). Перед использованием ссылки прочтите, пожалуйста Пользовательское соглашение, а также как можно дольше оставайтесь на раздаче! Для того, чтобы скачать сам торрент-файл (который видит больше источников), а также для того, чтобы поблагодарить релизера, вам необходимо зарегистрироваться. Если регистрироваться лень - вы можете также попробовать скачать релиз по нашим партнерским ссылкам ниже.

[underverse.su].t65967.torrent
Трекер: Зарегистрирован   [ 08.05.2016 08:39 ]  

Статус: проверено (by матроскин at 08.05.2016 08:39)
Поблагодарили: 2 человека
Тип торрента: публичный - доступные источники с открытых трекеров: 
Размер: 136 MB (занимает 0,03 DVDR, для записи нужно 1 болванка DVDR/RW)
 
 
Похожие темы
Форум Тема Автор Торрент Отв. Посл. сооб.
Исторические фильмы Бренды Советской эпохи. Мой адрес Советский Союз. [2013 г., документальный, HDTVRip] матроскин
0 | 0

1 | 832

29

27.02.2014 13:03

Исторические фильмы Бренды Советской Эпохи [2013, документальный, TVRip] матроскин
1 | 0

3 | 829

41

14.05.2013 19:23

Исторические фильмы Бренды Советской Эпохи. Московский метрополитен. [2013 г., документальный, короткометражный HDTVRip] матроскин
1 | 0

1 | 1183

24

09.05.2013 21:05

Исторические фильмы Бренды Советской эпохи. Черная икра. [2013 г., документальный, короткометражный HDTVRip] матроскин
0 | 0

2 | 1198

19

20.07.2013 13:34

Исторические фильмы Бренды Советской эпохи. Гитара. [2013 г., документальный, короткометражный, HDTVRip] матроскин
0 | 0

1 | 1060

13

12.05.2013 11:50

Исторические фильмы Бренды Советской эпохи. Большое новоселье [2013 г., исторический, документальный, HDTVRip] матроскин
0 | 0

2 | 979

25

01.08.2013 20:07

Исторические фильмы Бренды Советской эпохи. Мопеды [2013 г., исторический, документальный, HDTVRip] матроскин
1 | 0

1 | 1015

26

11.07.2013 08:55

Исторические фильмы Бренды Советской эпохи. Московские высотки. [2013 г., исторический, документальный, HDTVRip] матроскин
0 | 0

3 | 1067

24

21.07.2014 13:02

Исторические фильмы Бренды Советской эпохи. Советские часы [2013 г., документальный, исторический, HDTVRip] матроскин
0 | 0

2 | 1821

31

12.10.2013 05:00

Исторические фильмы Бренды Советской эпохи. Столичная водка [2013 г., документальный, исторический, HDTVRip] матроскин
0 | 0

1 | 2284

36

09.10.2013 10:54

матроскин Пол:Муж

08-Май-2016 10:07





добавлено спустя 5 минут 11 секунд:


Яндекс.Метрика powered by Sphinx


В Н И М А Н И Е
Сайт не распространяет и не хранит электронные версии произведений, а лишь бесплатно и без коммерческой выгоды (не требуя взамен платы,
SMS и т.д.) предоставляет доступ к создаваемому пользователями каталогу ссылок на торрент-файлы, которые содержат только списки хеш-сумм.
Убедительная просьба с жалобами обращаться напрямую к пользователю, разместившему торрент файл.

Вверх