Loading...
Error

Бренды Советской эпохи. Николай Крючков [2016 г., документальный, HDTVRip]

Статистика раздачи
Размер:  130 MB   |    Зарегистрирован:  6 месяцев   |    Скачан:  0 раз

Полного источника не было: 4 часа

Сидов:  0  |  0 KB/s  ]   Личеров:  0  |  0 KB/s  ]

* - сиды/пиры с внешних источников

   
 
Автор Сообщение

матроскин Пол:Муж

08-Май-2016 08:17

Бренды Советской эпохи. Николай Крючков


Год выпуска: 2016
Жанр: документальный
Страна: Россия
Выпущено: Красное Тв
Сюжет фильма:
Крючков Николай Афанасьевич- великий Советский актер театра и кино. Н. А. Крючков родился 24 декабря 1910 (6 января 1911 год) в Москве. В 14 лет поступил в ФЗУ при «Трёхгорной мануфактуре», где учился на гравёра-накатчика (1925—1928), там же начинает выступать в художественной самодеятельности.
В 1928—1930 годах учился в школе актёрского мастерства при Московском театре рабочей молодёжи. Учёбу совмещал с работой на фабрике «Трёхгорная мануфактура». Театральный дебют состоялся в 1927 году в постановке «1905 год». С 1928 по 1934 год — актёр Московского театра рабочей молодёжи (ТРАМ), (ныне — театр «Ленком»), учился у Н. П. Хмелёва, И. Я. Судакова и И. А. Савченко.
С 1931 по 1940 год — актёр киностудии «Межрабпомфильм» (позже — «Союздетфильм», ныне — киностудия имени М.Горького). Первую роль в кино актёр сыграл в фильме Б. В. Барнета «Окраина», исполнив роль сапожника Сеньки. За свою жизнь он сыграл более 120 ролей. Член Союза кинематографистов СССР.
В 1941—1945 годах — актёр киностудии «Мосфильм» и ЦОКС. С 1945 по 1992 год — актёр Театр-студии киноактёра.
Н. А. Крючков умер 13 апреля 1994 года. Похоронен в Москве на Новодевичьем кладбище (участок № 10).
Качество видео: HDTVRip

Продолжительность: 00:05:03
Формат: avi
Видео: DivX 4, 854x480, 3328 kbps
Аудио: русский, оригинал, MP3 2.0, 256 kbps

Код:

General
Complete name                    : C:\Users\Ohrana\Desktop\Бренды. Николай Крючков.avi
Format                           : AVI
Format/Info                      : Audio Video Interleave
File size                        : 130 MiB
Duration                         : 5mn 3s
Overall bit rate                 : 3 596 Kbps
Writing application              : Lavf52.93.0

Video
ID                               : 0
Format                           : MPEG-4 Visual
Format profile                   : Simple@L1
Format settings, BVOP            : No
Format settings, QPel            : No
Format settings, GMC             : No warppoints
Format settings, Matrix          : Default (H.263)
Codec ID                         : DIVX
Codec ID/Info                    : Project Mayo
Codec ID/Hint                    : DivX 4
Duration                         : 5mn 3s
Bit rate                         : 3 328 Kbps
Width                            : 854 pixels
Height                           : 480 pixels
Display aspect ratio             : 0.078
Frame rate                       : 25.000 fps
Resolution                       : 24 bits
Colorimetry                      : 4:2:0
Scan type                        : Progressive
Bits/(Pixel*Frame)               : 0.325
Stream size                      : 120 MiB (93%)
Writing library                  : Lavc52.108.0

Audio
ID                               : 1
Format                           : MPEG Audio
Format version                   : Version 1
Format profile                   : Layer 3
Codec ID                         : 55
Codec ID/Hint                    : MP3
Duration                         : 5mn 3s
Bit rate mode                    : Constant
Bit rate                         : 256 Kbps
Channel(s)                       : 2 channels
Sampling rate                    : 44.1 KHz
Resolution                       : 16 bits
Stream size                      : 9.25 MiB (7%)
Alignment                        : Aligned on interleaves
Interleave, duration             : 26 ms (0.65 video frame)
Writing library                  : LAME3.98.4

picpicpicpicpicpic
Для увеличения картинки щелкните мышкой по превью

Этот торрент недоступен для скачивания без регистрации, однако доступен по публичной magnet-ссылке (источники с публичных трекеров). Перед использованием ссылки прочтите, пожалуйста Пользовательское соглашение, а также как можно дольше оставайтесь на раздаче! Для того, чтобы скачать сам торрент-файл (который видит больше источников), а также для того, чтобы поблагодарить релизера, вам необходимо зарегистрироваться. Если регистрироваться лень - вы можете также попробовать скачать релиз по нашим партнерским ссылкам ниже.

[underverse.su].t65966.torrent
Трекер: Зарегистрирован   [ 08.05.2016 08:17 ]  

Статус: проверено (by матроскин at 08.05.2016 08:18)
Поблагодарили: пока никто не поблагодарил...
Тип торрента: публичный - доступные источники с открытых трекеров: 
Размер: 130 MB (занимает 0,03 DVDR, для записи нужно 1 болванка DVDR/RW)
 
 
Похожие темы
Форум Тема Автор Торрент Отв. Посл. сооб.
Исторические фильмы Бренды Советской эпохи. Мой адрес Советский Союз. [2013 г., документальный, HDTVRip] матроскин
0 | 0

1 | 831

29

27.02.2014 13:03

Исторические фильмы Бренды Советской Эпохи [2013, документальный, TVRip] матроскин
1 | 0

3 | 828

41

14.05.2013 19:23

Исторические фильмы Бренды Советской Эпохи. Московский метрополитен. [2013 г., документальный, короткометражный HDTVRip] матроскин
0 | 0

1 | 1179

24

09.05.2013 21:05

Исторические фильмы Бренды Советской эпохи. Черная икра. [2013 г., документальный, короткометражный HDTVRip] матроскин
0 | 0

2 | 1197

19

20.07.2013 13:34

Исторические фильмы Бренды Советской эпохи. Гитара. [2013 г., документальный, короткометражный, HDTVRip] матроскин
0 | 0

1 | 1059

13

12.05.2013 11:50

Исторические фильмы Бренды Советской эпохи. Большое новоселье [2013 г., исторический, документальный, HDTVRip] матроскин
0 | 0

2 | 976

25

01.08.2013 20:07

Исторические фильмы Бренды Советской эпохи. Мопеды [2013 г., исторический, документальный, HDTVRip] матроскин
1 | 0

1 | 1014

26

11.07.2013 08:55

Исторические фильмы Бренды Советской эпохи. Московские высотки. [2013 г., исторический, документальный, HDTVRip] матроскин
0 | 0

3 | 1065

24

21.07.2014 13:02

Исторические фильмы Бренды Советской эпохи. Советские часы [2013 г., документальный, исторический, HDTVRip] матроскин
0 | 0

2 | 1821

31

12.10.2013 05:00

Исторические фильмы Бренды Советской эпохи. Столичная водка [2013 г., документальный, исторический, HDTVRip] матроскин
0 | 0

1 | 2282

36

09.10.2013 10:54

матроскин Пол:Муж

08-Май-2016 10:08





добавлено спустя 1 минута 25 секунд:


Яндекс.Метрика powered by Sphinx


В Н И М А Н И Е
Сайт не распространяет и не хранит электронные версии произведений, а лишь бесплатно и без коммерческой выгоды (не требуя взамен платы,
SMS и т.д.) предоставляет доступ к создаваемому пользователями каталогу ссылок на торрент-файлы, которые содержат только списки хеш-сумм.
Убедительная просьба с жалобами обращаться напрямую к пользователю, разместившему торрент файл.

Вверх