Loading...
Error

Скверный зануда / Сорванцы / Мерзкие паршивцы / Mogunger / Nasty Brats (Джакомо Кампеотто) [2003 г., семейный, комедия, DVDRip] VO + Original + Subs

Статистика раздачи
Размер:  1,46 GB   |    Зарегистрирован:  7 месяцев   |    Скачан:  1 раз

Полного источника не было: 6 месяцев

Сидов:  0  |  0 KB/s  ]   Личеров:  0  |  0 KB/s  ]

* - сиды/пиры с внешних источников

   
 
Автор Сообщение

makkol Пол:Муж

06-Май-2016 15:43

Скверный зануда / Сорванцы / Мерзкие паршивцы
Møgunger / Nasty Brats


Год выпуска: 2003
Жанр: семейный, комедия
Производство: Дания [Crone Film Produktion A/S]
Режиссер: Джакомо Кампеотто
В ролях: Адам Гилберт Есперсен, Мари Катрин Раш, Тобиаш Йоханнессен, Себастьян Аагаард-Вильямс, Пелле Банг Серенсен, Еспер Кристенсен, Бьярне Хенриксен, Пав Хенриксон, Кристина Мейер, Керстен Лефельдт, Дик Кайсё
Сюжет фильма:
12-летний Джордж, недавно переехавший в новый жилищный комплекс, сталкивается на новом месте жительства со злобным и въедливым смотрителем комплекса. Постепенно завоевывая симпатию местных ребят, также страдающих от скверного характера смотрителя, Джордж разрабатывает план мести…

  • Мировая премьера: 10 октября 2003


Качество видео: DVDRip

Продолжительность: 01:23:37
Формат: AVI
Видео: XviD, 720x384 (1.85:1), 25.000 fps, 1596 kbps
Аудио #1: русский, любительский одноголосый закадровый, AC3 5.1, 48 kHz, 448 kbps
Аудио #2: датский, оригинал, AC3 5.1, 48 kHz, 448 kbps
Субтитры: русские, английские внешние, SRT

Код:

Общее
Полное имя                               : Mogunger.2003.VO.DVDRip.avi
Формат                                   : AVI
Формат/Информация                        : Audio Video Interleave
Размер файла                             : 1,46 Гбайт
Продолжительность                        : 1 ч. 23 м.
Общий поток                              : 2498 Кбит/сек
Программа кодирования                    : VirtualDubMod 1.5.4.1 (build 2178/release)
Библиотека кодирования                   : VirtualDubMod build 2178/release

Видео
Идентификатор                            : 0
Формат                                   : MPEG-4 Visual
Профиль формата                          : Advanced Simple@L5
Параметр BVOP формата                    : 1
Параметр QPel формата                    : Нет
Параметр GMC формата                     : Без точки перехода
Параметр матрицы формата                 : Выборочная
Идентификатор кодека                     : XVID
Идентификатор кодека/Подсказка           : XviD
Продолжительность                        : 1 ч. 23 м.
Битрейт                                  : 1596 Кбит/сек
Ширина                                   : 720 пикселей
Высота                                   : 384 пикселя
Соотношение сторон                       : 1,85:1
Частота кадров                           : 25,000 кадров/сек
Цветовое пространство                    : YUV
Субдискретизация насыщенности            : 4:2:0
Битовая глубина                          : 8 бит
Тип развёртки                            : Прогрессивная
Метод сжатия                             : С потерями
Бит/(Пиксели*Кадры)                      : 0.231
Размер потока                            : 955 Мбайт (64%)
Библиотека кодирования                   : XviD 1.2.1 (UTC 2008-12-04)

Аудио #1
Идентификатор                            : 1
Формат                                   : AC-3
Формат/Информация                        : Audio Coding 3
Расширение режима                        : CM (complete main)
Параметр Endianness формата              : Big
Идентификатор кодека                     : 2000
Продолжительность                        : 1 ч. 23 м.
Вид битрейта                             : Постоянный
Битрейт                                  : 448 Кбит/сек
Каналы                                   : 6 каналов
Расположение каналов                     : Front: L C R, Side: L R, LFE
Частота                                  : 48,0 КГц
Метод сжатия                             : С потерями
Задержка видео                           : 300 мс.
Размер потока                            : 267 Мбайт (18%)
Выравнивание                             : Разделение по промежуткам
Продолжительность промежутка             : 96  мс. (2,41 видеокадра)
Время предзагрузки промежутка            : 96  мс.
Язык                                     : Russian

Аудио #2
Идентификатор                            : 2
Формат                                   : AC-3
Формат/Информация                        : Audio Coding 3
Расширение режима                        : CM (complete main)
Параметр Endianness формата              : Big
Идентификатор кодека                     : 2000
Продолжительность                        : 1 ч. 23 м.
Вид битрейта                             : Постоянный
Битрейт                                  : 448 Кбит/сек
Каналы                                   : 6 каналов
Расположение каналов                     : Front: L C R, Side: L R, LFE
Частота                                  : 48,0 КГц
Метод сжатия                             : С потерями
Задержка видео                           : 300 мс.
Размер потока                            : 267 Мбайт (18%)
Выравнивание                             : Разделение по промежуткам
Продолжительность промежутка             : 96  мс. (2,41 видеокадра)
Время предзагрузки промежутка            : 96  мс.
Язык                                     : Dansk
Перевод: Sasha22
Адаптация субтитров: Nike
Озвучание: Семен Ващенко
Сведение звука и сборка: Diablo
Организация озвучания: Minhers76
Релиз от:
picpicpicpicpic
Для увеличения картинки щелкните мышкой по превью

Этот торрент недоступен для скачивания без регистрации, однако доступен по публичной magnet-ссылке (источники с публичных трекеров). Перед использованием ссылки прочтите, пожалуйста Пользовательское соглашение, а также как можно дольше оставайтесь на раздаче! Для того, чтобы скачать сам торрент-файл (который видит больше источников), а также для того, чтобы поблагодарить релизера, вам необходимо зарегистрироваться. Если регистрироваться лень - вы можете также попробовать скачать релиз по нашим партнерским ссылкам ниже.

[underverse.su].t65924.torrent
Трекер: Зарегистрирован   [ 06.05.2016 15:43 ]  

Статус: проверено (by makkol at 06.05.2016 23:08)
Поблагодарили: пока никто не поблагодарил...
Тип торрента: публичный - доступные источники с открытых трекеров: 
Размер: 1,46 GB (занимает 1/3 DVDR, для записи нужно 1 болванка DVDR/RW)
 
 

Яндекс.Метрика powered by Sphinx


В Н И М А Н И Е
Сайт не распространяет и не хранит электронные версии произведений, а лишь бесплатно и без коммерческой выгоды (не требуя взамен платы,
SMS и т.д.) предоставляет доступ к создаваемому пользователями каталогу ссылок на торрент-файлы, которые содержат только списки хеш-сумм.
Убедительная просьба с жалобами обращаться напрямую к пользователю, разместившему торрент файл.

Вверх