Loading...
Error

Охота на ведьм: столетие убийств / Witch Hunt A Century of Murder (1-2 серии из 2) [2015 г., документально-постановочный, история, SatRip] Dub

Статистика раздачи
Размер:  1,25 GB   |    Зарегистрирован:  6 месяцев   |    Скачан:  4 раза

Полного источника не было: 3 месяца 8 дней

Сидов:  0  |  0 KB/s  ]   Личеров:  0  |  0 KB/s  ]

* - сиды/пиры с внешних источников

   
 
Автор Сообщение

ARI71 Пол:Муж

06-Май-2016 13:43

Охота на ведьм: столетие убийств / Witch Hunt A Century of Murder (1-2 серии из 2)


Год выпуска: 2015
Жанр: документально-постановочный, история
Страна: Великобритания Channel 5 Broadcasting Ltd.
Режиссер: Крис Холт
Сюжет фильма:
Доктор Сюзанна Липскомб узнаёт, что происходило 400 лет назад с теми, кого обвиняли в колдовстве, а также почему больше мужчин, чем женщин, пыталось вырваться из Британии.
Качество видео: SatRip

Продолжительность: 2 x ~ 00:44:49
Формат: AVI
Видео: XviD, 704x400, ~1795 kbps
Аудио: русский, (дублированный), AC3 2.0, ~192.00 kbps
(тех. данные всех серий идентичны)
1 серия:
Доктор Сюзанна Липскомб узнаёт, что происходило 400 лет назад с теми, кого обвиняли в колдовстве, а также почему больше мужчин, чем женщин, пыталось вырваться из Британии.

2 серия:
Вы увидите, как предприимчивый молодой пуританин Мэтью Хопкинс сумел почувствовать дух времени и получить огромную выгоду от осуждения сотен невинных людей.

Код:

Общее
Полное имя : D:\Witch Hunt_A Century Of Murder\part_01.avi
Формат : AVI
Формат/Информация : Audio Video Interleave
Размер файла : 639 Мбайт
Продолжительность : 44 м.
Общий поток : 1994 Кбит/сек
Программа кодирования : TMPGEnc Video Mastering Works 5 Version. 5.0.6.38
Библиотека кодирования : TMPGEnc Video Mastering Works 5 Version. 5.0.6.38

Видео
Идентификатор : 0
Формат : MPEG-4 Visual
Профиль формата : Advanced Simple@L5
Параметр BVOP формата : 2
Параметр QPel формата : Нет
Параметр GMC формата : Без точки перехода
Параметр матрицы формата : Default (H.263)
Режим смешивания : Сжатый битовый поток
Идентификатор кодека : XVID
Идентификатор кодека/Подсказка : XviD
Продолжительность : 44 м.
Битрейт : 1795 Кбит/сек
Ширина : 704 пикселя
Высота : 400 пикселей
Соотношение сторон : 16:9
Частота кадров : 25,000 кадров/сек
Цветовое пространство : YUV
Субдискретизация насыщенности : 4:2:0
Битовая глубина : 8 бит
Тип развёртки : Прогрессивная
Метод сжатия : С потерями
Бит/(Пиксели*Кадры) : 0.255
Размер потока : 575 Мбайт (90%)
Библиотека кодирования : XviD 73

Аудио
Идентификатор : 1
Формат : AC-3
Формат/Информация : Audio Coding 3
Расширение режима : CM (complete main)
Параметр Endianness формата : Big
Идентификатор кодека : 2000
Продолжительность : 44 м.
Вид битрейта : Постоянный
Битрейт : 192 Кбит/сек
Каналы : 2 канала
Расположение каналов : Front: L R
Частота : 48,0 КГц
Метод сжатия : С потерями
Размер потока : 61,5 Мбайт (10%)
Выравнивание : Соединение по промежуткам
Продолжительность промежутка : 240 мс. (6,00 видеокадров)
Время предзагрузки промежутка : 224 мс.
Релиз группы:

picpicpicpicpic
Для увеличения картинки щелкните мышкой по превью

Этот торрент недоступен для скачивания без регистрации, однако доступен по публичной magnet-ссылке (источники с публичных трекеров). Перед использованием ссылки прочтите, пожалуйста Пользовательское соглашение, а также как можно дольше оставайтесь на раздаче! Для того, чтобы скачать сам торрент-файл (который видит больше источников), а также для того, чтобы поблагодарить релизера, вам необходимо зарегистрироваться. Если регистрироваться лень - вы можете также попробовать скачать релиз по нашим партнерским ссылкам ниже.

[underverse.su].t66004.torrent
Трекер: Зарегистрирован   [ 09.05.2016 15:55 ]  

Статус: проверено (by makkol at 09.05.2016 22:45)
Поблагодарили: 2 человека
Тип торрента: публичный - доступные источники с открытых трекеров: 
Размер: 1,25 GB (занимает 0,29 DVDR, для записи нужно 1 болванка DVDR/RW)
 
 

Яндекс.Метрика powered by Sphinx


В Н И М А Н И Е
Сайт не распространяет и не хранит электронные версии произведений, а лишь бесплатно и без коммерческой выгоды (не требуя взамен платы,
SMS и т.д.) предоставляет доступ к создаваемому пользователями каталогу ссылок на торрент-файлы, которые содержат только списки хеш-сумм.
Убедительная просьба с жалобами обращаться напрямую к пользователю, разместившему торрент файл.

Вверх