Loading...
Error

Крымский инопланетянин. Мистика Волошина [2016 г., документальный, биография, поэзия, SatRip]

Статистика раздачи
Размер:  624 MB   |    Зарегистрирован:  7 месяцев   |    Скачан:  2 раза

Полного источника не было: 3 месяца 16 дней

Сидов:  0  |  0 KB/s  ]   Личеров:  0  |  0 KB/s  ]

* - сиды/пиры с внешних источников

   
 
Автор Сообщение

ARI71 Пол:Муж

06-Май-2016 11:42

Крымский инопланетянин. Мистика Волошина


Год выпуска: 2016
Жанр: документальный, биография, поэзия
Страна: Россия ВГТРК
Режиссер: Алла Савина
Сюжет фильма:
Сентябрьская ночь 1927 года. Крым. Коктебель. Сотни людей в панике выбегали на улицы, пытаясь найти надежное укрытие. Уже несколько часов землю сотрясали жуткие удары изнутри. Покоя не было и на море. Там вспыхивали столбы красного пара. Вода становилась алой, словно кровь. Казалось, что еще немного - и морские врата разверзнутся, как ад. Даже в паническом движении не могла не обращать на себя внимание фигура огромного человека в рубашке-хитоне, спокойно взирающего на эту картину. Это был Максимилиан Волошин – поэт, художник, философ, человек, занимавший особое место в крымской жизни. Ровно год назад он попытался предупредить местных ученых, что произойдет катастрофа. "Огненное дыхание моря" - так он это называл. Волошин хорошо помнил смех, который услышал в ответ. Еще при жизни Волошин стал легендой, которая давно переросла в миф. Но ведь мифы всегда возникали на основе реальных событий.

Максимилиа́н Алекса́ндрович Воло́шин (фамилия при рождении — Кирие́нко-Воло́шин; 16 [28] мая 1877, Киев, Российская империя — 11 августа 1932, Коктебель, Крымская АССР, СССР) — русский поэт, переводчик, художник-пейзажист, художественный и литературный критик.

Качество видео: SatRip

Продолжительность: 00:43:35
Формат: AVI
Видео: XviD, 720x400, ~1800 kbps
Аудио: русский, (оригинал), AC3 2.0, ~192.00 kbps

Код:

Общее
Полное имя : D:\Krymskiy.Inoplanetyanin.SATRip.[www.*другой трекер*].avi
Формат : AVI
Формат/Информация : Audio Video Interleave
Размер файла : 624 Мбайт
Продолжительность : 43 м.
Общий поток : 2001 Кбит/сек
Программа кодирования : VirtualDubMod 1.5.10.3 | www.virtualdub-fr.org || (build 2550/release)
Библиотека кодирования : VirtualDubMod build 2550/release

Видео
Идентификатор : 0
Формат : MPEG-4 Visual
Профиль формата : Advanced Simple@L5
Параметр BVOP формата : 2
Параметр QPel формата : Нет
Параметр GMC формата : Без точки перехода
Параметр матрицы формата : Default (H.263)
Идентификатор кодека : XVID
Идентификатор кодека/Подсказка : XviD
Продолжительность : 43 м.
Битрейт : 1800 Кбит/сек
Ширина : 720 пикселей
Высота : 400 пикселей
Соотношение сторон : 16:9
Частота кадров : 25,000 кадров/сек
Цветовое пространство : YUV
Субдискретизация насыщенности : 4:2:0
Битовая глубина : 8 бит
Тип развёртки : Прогрессивная
Метод сжатия : С потерями
Бит/(Пиксели*Кадры) : 0.250
Размер потока : 561 Мбайт (90%)
Библиотека кодирования : XviD 1.2.1 (UTC 2008-12-04)

Аудио
Идентификатор : 1
Формат : AC-3
Формат/Информация : Audio Coding 3
Расширение режима : CM (complete main)
Параметр Endianness формата : Big
Идентификатор кодека : 2000
Продолжительность : 43 м.
Вид битрейта : Постоянный
Битрейт : 192 Кбит/сек
Каналы : 2 канала
Расположение каналов : Front: L R
Частота : 48,0 КГц
Метод сжатия : С потерями
Размер потока : 59,9 Мбайт (10%)
Выравнивание : Разделение по промежуткам
Продолжительность промежутка : 40 мс. (1,00 видеокадр)
Время предзагрузки промежутка : 500 мс.
picpicpicpic
Для увеличения картинки щелкните мышкой по превью

Этот торрент недоступен для скачивания без регистрации, однако доступен по публичной magnet-ссылке (источники с публичных трекеров). Перед использованием ссылки прочтите, пожалуйста Пользовательское соглашение, а также как можно дольше оставайтесь на раздаче! Для того, чтобы скачать сам торрент-файл (который видит больше источников), а также для того, чтобы поблагодарить релизера, вам необходимо зарегистрироваться. Если регистрироваться лень - вы можете также попробовать скачать релиз по нашим партнерским ссылкам ниже.

[underverse.su].t65912.torrent
Трекер: Зарегистрирован   [ 06.05.2016 11:42 ]  

Статус: проверено (by makkol at 06.05.2016 13:45)
Поблагодарили: пока никто не поблагодарил...
Тип торрента: публичный - доступные источники с открытых трекеров: 
Размер: 624 MB (занимает 0,14 DVDR, для записи нужно 1 болванка DVDR/RW)
 
 

Яндекс.Метрика powered by Sphinx


В Н И М А Н И Е
Сайт не распространяет и не хранит электронные версии произведений, а лишь бесплатно и без коммерческой выгоды (не требуя взамен платы,
SMS и т.д.) предоставляет доступ к создаваемому пользователями каталогу ссылок на торрент-файлы, которые содержат только списки хеш-сумм.
Убедительная просьба с жалобами обращаться напрямую к пользователю, разместившему торрент файл.

Вверх