Loading...
Error

Познер. Интервью с Андреем Смоляковым [2015 г., документальная, информационно-аналитическая программа, SatRip]

Статистика раздачи
Размер:  701 MB   |    Зарегистрирован:  6 месяцев   |    Скачан:  0 раз

Полного источника не было: 6 месяцев

Сидов:  0  |  0 KB/s  ]   Личеров:  0  |  0 KB/s  ]

* - сиды/пиры с внешних источников

   
 
Автор Сообщение

ARI71 Пол:Муж

06-Май-2016 11:13

Познер. Интервью с Андреем Смоляковым


Год выпуска: 2015
Жанр: документальная, информационно-аналитическая программа
Страна: Россия Первый канал
Автор и ведущий: Владимир Познер
В ролях: Андрей Смоляков
Сюжет фильма:
Авторская программа Владимира Познера. Владимир Познер задаёт вопросы политикам, общественным деятелям, деятелям культуры, искусства, науки, спорта. Беседа может быть как привязана к актуальным событиям недели, так и не связана с последними событиями. Любой желающий может предложить персону, которая была бы интересна аудитории. А также сформулировать вопросы, которые хотелось бы задать гостю...
Гость программы этого выпуска – Андрей Смоляков, Народный артист России, актер театра и кино.

Андре́й И́горевич Смоляко́в (род. 24 ноября 1958, Подольск) — советский и российский актёр театра и кино. Народный артист России (2004). Лауреат Государственной премии Российской Федерации.

Качество видео: SatRip

Продолжительность: 00:51:48
Формат: AVI
Видео: XviD, 720x400, ~1755 kbps
Аудио: русский, (оригинал), MP3 2.0, ~128.00 kbps

Код:

Общее
Полное имя : D:\P2-184_Andrej_Smoljakov-02.03.2015_WEBRip.avi
Формат : AVI
Формат/Информация : Audio Video Interleave
Размер файла : 701 Мбайт
Продолжительность : 51 м.
Общий поток : 1892 Кбит/сек
Программа кодирования : VirtualDubMod 1.6.0.0 SURROUND (build 2560/release)
Библиотека кодирования : VirtualDubMod build 2560/release

Видео
Идентификатор : 0
Формат : MPEG-4 Visual
Профиль формата : Advanced Simple@L5
Параметр BVOP формата : 2
Параметр QPel формата : Нет
Параметр GMC формата : Без точки перехода
Параметр матрицы формата : Default (MPEG)
Идентификатор кодека : XVID
Идентификатор кодека/Подсказка : XviD
Продолжительность : 51 м.
Битрейт : 1755 Кбит/сек
Ширина : 720 пикселей
Высота : 400 пикселей
Соотношение сторон : 5:4
Соотношение сторон в оригинале : 16:9
Частота кадров : 25,000 кадров/сек
Цветовое пространство : YUV
Субдискретизация насыщенности : 4:2:0
Битовая глубина : 8 бит
Тип развёртки : Прогрессивная
Метод сжатия : С потерями
Бит/(Пиксели*Кадры) : 0.244
Размер потока : 650 Мбайт (93%)
Библиотека кодирования : XviD 1.2.1 (UTC 2008-12-04)

Аудио
Идентификатор : 1
Формат : MPEG Audio
Версия формата : Version 1
Профиль формата : Layer 3
Режим : Joint stereo
Расширение режима : MS Stereo
Идентификатор кодека : 55
Идентификатор кодека/Подсказка : MP3
Продолжительность : 51 м.
Вид битрейта : Постоянный
Битрейт : 128 Кбит/сек
Каналы : 2 канала
Частота : 48,0 КГц
Метод сжатия : С потерями
Размер потока : 47,4 Мбайт (7%)
Выравнивание : Разделение по промежуткам
Продолжительность промежутка : 40 мс. (1,00 видеокадр)
Время предзагрузки промежутка : 500 мс.
Библиотека кодирования : LAME3.98.4ЄЄЄЄЄЄЄЄЄЄ
picpicpicpicpic
Для увеличения картинки щелкните мышкой по превью

Этот торрент недоступен для скачивания без регистрации, однако доступен по публичной magnet-ссылке (источники с публичных трекеров). Перед использованием ссылки прочтите, пожалуйста Пользовательское соглашение, а также как можно дольше оставайтесь на раздаче! Для того, чтобы скачать сам торрент-файл (который видит больше источников), а также для того, чтобы поблагодарить релизера, вам необходимо зарегистрироваться. Если регистрироваться лень - вы можете также попробовать скачать релиз по нашим партнерским ссылкам ниже.

[underverse.su].t65910.torrent
Трекер: Зарегистрирован   [ 06.05.2016 11:13 ]  

Статус: проверено (by makkol at 06.05.2016 13:43)
Поблагодарили: пока никто не поблагодарил...
Тип торрента: публичный - доступные источники с открытых трекеров: 
Размер: 701 MB (занимает 0,16 DVDR, для записи нужно 1 болванка DVDR/RW)
 
 
Похожие темы
Форум Тема Автор Торрент Отв. Посл. сооб.
Информационно-аналитические передачи Познер. Интервью с Константином Райкиным [2011 г., документальная, информационно-аналитическая программа, SatRip] ARI71
0 | 0

0 | 541

1

02.05.2016 14:58

Информационно-аналитические передачи Познер. Интервью с Натальей Солженицыной [2014 г., документальная, информационно-аналитическая программа, WEBRip] ARI71
0 | 1

0 | 528

3

26.06.2016 14:30


Яндекс.Метрика powered by Sphinx


В Н И М А Н И Е
Сайт не распространяет и не хранит электронные версии произведений, а лишь бесплатно и без коммерческой выгоды (не требуя взамен платы,
SMS и т.д.) предоставляет доступ к создаваемому пользователями каталогу ссылок на торрент-файлы, которые содержат только списки хеш-сумм.
Убедительная просьба с жалобами обращаться напрямую к пользователю, разместившему торрент файл.

Вверх