Loading...
Error

Эш против Зловещих мертвецов / Ash vs Evil Dead / Сезон 1 (1-10 серии из 10) (Майкл Херст, Рик Джейкобсон, Сэм Рэйми) [2015 г., ужасы, боевик, комедия, HDTVRip] 4xMVO + DVO + AVO + Original + Subs

Статистика раздачи
Размер:  7,41 GB   |    Зарегистрирован:  6 месяцев   |    Скачан:  5 раз

Полного источника не было: 1 месяц 8 дней

Сидов:  0  |  0 KB/s  ]   Личеров:  0  |  0 KB/s  ]

* - сиды/пиры с внешних источников

   
 
Автор Сообщение

makkol Пол:Муж

05-Май-2016 14:00

Эш против Зловещих мертвецов / Ash vs Evil Dead / Сезон 1


Год выпуска: 2015
Жанр: ужасы, боевик, комедия
Производство: США [Starz, Renaissance Pictures]
Режиссер: Майкл Херст, Рик Джейкобсон, Сэм Рэйми
В ролях: Брюс Кэмпбелл, Джилл Мари Джонс, Дэна ДеЛоренцо, Люси Лоулесс, Рэй Сантьяго, Мими Роджерс, Хемки Мадера, Фил Пелетон, Дэмиен Гарви
Сюжет фильма:
30 лет он избегал ответственности за свои поступки, упорно старался не взрослеть и не особо стремился вновь встретиться с ожившими мертвецами. Но, совершив ошибку, Эш узнает, что проказа кандарийских демонов угрожает распространиться по всей планете и ему снова приходится вступить в схватку с полчищами мертвой нечисти. Реки крови, горы трупов и, конечно, искрометный черный юмор – отличный подарок всем любителям ужасов, комедий, крови, треша и угара.

  • Мировая премьера: 31 октября 2015
  • Российская премьера: 31 октября 2015


Качество видео: HDTVRip

Продолжительность: 10 x ~00:30:00
Формат: AVI
Видео: XviD, 720x400 (16:9), 25.000 fps, ~2000 kbps
Аудио #1: русский, профессиональный многоголосый закадровый (Amedia), AC3 5.1, 48 kHz, 384 kbps
Аудио #2: русский, авторский одноголосый закадровый (Дмитрий "Goblin" Пучков), AC3 2.0, 48 kHz, 192 kbps
Аудио #3: русский, профессиональный двухголосый закадровый (Кубик в кубе), AC3 2.0, 48 kHz, 192 kbps
Аудио #4: русский, профессиональный многоголосый закадровый (AlexFilm), AC3 2.0, 48 kHz, 192 kbps
Аудио #5: русский, профессиональный многоголосый закадровый (NewStudio), AC3 2.0, 48 kHz, 192 kbps
Аудио #6: русский, профессиональный многоголосый закадровый (Jaskier), AC3 2.0, 48 kHz, 192 kbps
Аудио #7: английский, оригинал, AC3 5.1, 48 kHz, 384 kbps
Субтитры: русские (Амедиа), английские внешние, SRT

Код:

Формат                                   : AVI
Формат/Информация                        : Audio Video Interleave
Размер файла                             : 1,03 Гбайт
Продолжительность                        : 39 м.
Общий поток                              : 3766 Кбит/сек
Программа кодирования                    : VirtualDubMod 1.5.10.3 | www.virtualdub-fr.org || (build 2550/release)
Библиотека кодирования                   : VirtualDubMod build 2550/release

Видео
Идентификатор                            : 0
Формат                                   : MPEG-4 Visual
Профиль формата                          : Advanced Simple@L5
Параметр BVOP формата                    : 2
Параметр QPel формата                    : Нет
Параметр GMC формата                     : Без точки перехода
Параметр матрицы формата                 : Default (MPEG)
Идентификатор кодека                     : XVID
Идентификатор кодека/Подсказка           : XviD
Продолжительность                        : 39 м.
Битрейт                                  : 2000 Кбит/сек
Ширина                                   : 720 пикселей
Высота                                   : 400 пикселей
Соотношение сторон                       : 16:9
Частота кадров                           : 25,000 кадров/сек
Цветовое пространство                    : YUV
Субдискретизация насыщенности            : 4:2:0
Битовая глубина                          : 8 бит
Тип развёртки                            : Прогрессивная
Метод сжатия                             : С потерями
Бит/(Пиксели*Кадры)                      : 0.278
Размер потока                            : 560 Мбайт (53%)
Библиотека кодирования                   : XviD 73

Аудио #1
Идентификатор                            : 1
Формат                                   : AC-3
Формат/Информация                        : Audio Coding 3
Расширение режима                        : CM (complete main)
Параметр Endianness формата              : Big
Идентификатор кодека                     : 2000
Продолжительность                        : 39 м.
Вид битрейта                             : Постоянный
Битрейт                                  : 384 Кбит/сек
Каналы                                   : 6 каналов
Расположение каналов                     : Front: L C R, Side: L R, LFE
Частота                                  : 48,0 КГц
Метод сжатия                             : С потерями
Размер потока                            : 107 Мбайт (10%)
Выравнивание                             : Разделение по промежуткам
Продолжительность промежутка             : 40  мс. (1,00 видеокадр)
Время предзагрузки промежутка            : 500  мс.
Заголовок                                : Amedia

Аудио #2
Идентификатор                            : 2
Формат                                   : AC-3
Формат/Информация                        : Audio Coding 3
Расширение режима                        : CM (complete main)
Параметр Endianness формата              : Big
Идентификатор кодека                     : 2000
Продолжительность                        : 39 м.
Вид битрейта                             : Постоянный
Битрейт                                  : 192 Кбит/сек
Каналы                                   : 2 канала
Расположение каналов                     : Front: L R
Частота                                  : 48,0 КГц
Метод сжатия                             : С потерями
Размер потока                            : 53,7 Мбайт (5%)
Выравнивание                             : Разделение по промежуткам
Продолжительность промежутка             : 40  мс. (1,00 видеокадр)
Время предзагрузки промежутка            : 500  мс.
Заголовок                                : Goblin

Аудио #3
Идентификатор                            : 3
Формат                                   : AC-3
Формат/Информация                        : Audio Coding 3
Расширение режима                        : CM (complete main)
Параметр Endianness формата              : Big
Идентификатор кодека                     : 2000
Продолжительность                        : 39 м.
Вид битрейта                             : Постоянный
Битрейт                                  : 192 Кбит/сек
Каналы                                   : 2 канала
Расположение каналов                     : Front: L R
Частота                                  : 48,0 КГц
Метод сжатия                             : С потерями
Размер потока                            : 53,7 Мбайт (5%)
Выравнивание                             : Разделение по промежуткам
Продолжительность промежутка             : 40  мс. (1,00 видеокадр)
Время предзагрузки промежутка            : 500  мс.
Заголовок                                : Кубик в кубе

Аудио #4
Идентификатор                            : 4
Формат                                   : AC-3
Формат/Информация                        : Audio Coding 3
Расширение режима                        : CM (complete main)
Параметр Endianness формата              : Big
Идентификатор кодека                     : 2000
Продолжительность                        : 39 м.
Вид битрейта                             : Постоянный
Битрейт                                  : 192 Кбит/сек
Каналы                                   : 2 канала
Расположение каналов                     : Front: L R
Частота                                  : 48,0 КГц
Метод сжатия                             : С потерями
Размер потока                            : 53,7 Мбайт (5%)
Выравнивание                             : Разделение по промежуткам
Продолжительность промежутка             : 40  мс. (1,00 видеокадр)
Время предзагрузки промежутка            : 500  мс.
Заголовок                                : AlexFilm

Аудио #5
Идентификатор                            : 5
Формат                                   : AC-3
Формат/Информация                        : Audio Coding 3
Расширение режима                        : CM (complete main)
Параметр Endianness формата              : Big
Идентификатор кодека                     : 2000
Продолжительность                        : 39 м.
Вид битрейта                             : Постоянный
Битрейт                                  : 192 Кбит/сек
Каналы                                   : 2 канала
Расположение каналов                     : Front: L R
Частота                                  : 48,0 КГц
Метод сжатия                             : С потерями
Размер потока                            : 53,7 Мбайт (5%)
Выравнивание                             : Разделение по промежуткам
Продолжительность промежутка             : 40  мс. (1,00 видеокадр)
Время предзагрузки промежутка            : 500  мс.
Заголовок                                : NewStudio

Аудио #6
Идентификатор                            : 6
Формат                                   : AC-3
Формат/Информация                        : Audio Coding 3
Расширение режима                        : CM (complete main)
Параметр Endianness формата              : Big
Идентификатор кодека                     : 2000
Продолжительность                        : 39 м.
Вид битрейта                             : Постоянный
Битрейт                                  : 192 Кбит/сек
Каналы                                   : 2 канала
Расположение каналов                     : Front: L R
Частота                                  : 48,0 КГц
Метод сжатия                             : С потерями
Размер потока                            : 53,7 Мбайт (5%)
Выравнивание                             : Разделение по промежуткам
Продолжительность промежутка             : 40  мс. (1,00 видеокадр)
Время предзагрузки промежутка            : 500  мс.
Заголовок                                : Jaskier

Аудио #7
Идентификатор                            : 7
Формат                                   : AC-3
Формат/Информация                        : Audio Coding 3
Расширение режима                        : CM (complete main)
Параметр Endianness формата              : Big
Идентификатор кодека                     : 2000
Продолжительность                        : 39 м.
Вид битрейта                             : Постоянный
Битрейт                                  : 384 Кбит/сек
Каналы                                   : 6 каналов
Расположение каналов                     : Front: L C R, Side: L R, LFE
Частота                                  : 48,0 КГц
Метод сжатия                             : С потерями
Размер потока                            : 107 Мбайт (10%)
Выравнивание                             : Разделение по промежуткам
Продолжительность промежутка             : 40  мс. (1,00 видеокадр)
Время предзагрузки промежутка            : 500  мс.
Заголовок                                : Original
Релиз qqss44

picpicpicpicpic
Для увеличения картинки щелкните мышкой по превью

Этот торрент недоступен для скачивания без регистрации, однако доступен по публичной magnet-ссылке (источники с публичных трекеров). Перед использованием ссылки прочтите, пожалуйста Пользовательское соглашение, а также как можно дольше оставайтесь на раздаче! Для того, чтобы скачать сам торрент-файл (который видит больше источников), а также для того, чтобы поблагодарить релизера, вам необходимо зарегистрироваться. Если регистрироваться лень - вы можете также попробовать скачать релиз по нашим партнерским ссылкам ниже.

[underverse.su].t65872.torrent
Трекер: Зарегистрирован   [ 05.05.2016 14:00 ]  

Статус: проверено (by Dryn9 at 05.05.2016 14:39)
Поблагодарили: пока никто не поблагодарил...
Тип торрента: публичный - доступные источники с открытых трекеров: 
Размер: 7,41 GB (занимает 1,69 DVDR, для записи нужно 2 болванки DVDR/RW)
 
 
Похожие темы
Форум Тема Автор Торрент Отв. Посл. сооб.
* Зарубежные сериалы Эш против Зловещих мертвецов / Ash vs Evil Dead / Сезон 1 (1-10 серии из 10) (Майкл Херст, Рик Джейкобсон, Сэм Рэйми) [2015 г., ужасы, боевик, комедия, WEBRip] MVO (NewStudio) + Original ultarasbarcelona
21 | 5

1 | 1782

1

05.05.2016 11:50

* Зарубежные сериалы Эш против Зловещих мертвецов / Ash vs Evil Dead / Сезон 1 (1-10 серии из 10) (Майкл Херст, Рик Джейкобсон, Сэм Рэйми) [2015 г., ужасы, боевик, комедия, HDTVRip] MVO (Amedia) ultarasbarcelona
5 | 3

1 | 1815

1

05.05.2016 12:03

Зарубежные сериалы [BD / Remux / BDRip / WEB-DL / HDTV 1080/720р] Эш против Зловещих мертвецов / Ash vs Evil Dead / Сезон 1 (1-10 серии из 10) (Майкл Херст, Рик Джейкобсон, Сэм Рэйми) [2015 г., ужасы, боевик, комедия, HDTVRip 1080p] 4xMVO + DVO + AVO + Original +... makkol
53 | 20

0 | 1551

4

05.05.2016 14:14


Яндекс.Метрика powered by Sphinx


В Н И М А Н И Е
Сайт не распространяет и не хранит электронные версии произведений, а лишь бесплатно и без коммерческой выгоды (не требуя взамен платы,
SMS и т.д.) предоставляет доступ к создаваемому пользователями каталогу ссылок на торрент-файлы, которые содержат только списки хеш-сумм.
Убедительная просьба с жалобами обращаться напрямую к пользователю, разместившему торрент файл.

Вверх