Loading...
Error

Обручённые обречённые / Committed (Стелена Клирис) [2014 г., мелодрама, комедия, WEB-DLRip] Dub (iTunes)

Статистика раздачи
Размер:  1,37 GB   |    Зарегистрирован:  7 месяцев   |    Скачан:  7 раз
Сидов:  1  |  0 KB/s  ]   Личеров:  0  |  0 KB/s  ]

* - сиды/пиры с внешних источников

   
 
Автор Сообщение

makkol Пол:Муж

05-Май-2016 11:28

Обручённые обречённые / Committed


Год выпуска: 2014
Жанр: мелодрама, комедия
Производство: Кипр [AMP Filmworks]
Режиссер: Стелена Клирис
В ролях: Мелия Крейлинг, Орест Софоклеус
Сюжет фильма:
Романтическая комедия в стиле роуд-муви, действие которой разворачивается на красивейшем средиземноморском острове. Джордж пытается скрыться от своей девушки и встречает Еву, только что сбежавшую из-под венца. Вместе они отправляются в невероятное путешествие, где переосмыслят свои взгляды на отношения, обязательства и любовь...

  • Мировая премьера: 20 июня 2014


Качество видео: WEB-DLRip

Продолжительность: 01:33:07
Формат: AVI
Видео: XviD, 720x304 (2.35:1), 23.976 fps, 1806 kbps
Аудио: русский, дублированный (iTunes), AC3 5.1, 48 kHz, 384 kbps

Код:

Формат                                   : AVI
Формат/Информация                        : Audio Video Interleave
Размер файла                             : 1,37 Гбайт
Продолжительность                        : 1 ч. 29 м.
Общий поток                              : 2200 Кбит/сек
Программа кодирования                    : VirtualDubMod 1.5.10.3 | www.virtualdub-fr.org || (build 2550/release)

Видео
Идентификатор                            : 0
Формат                                   : MPEG-4 Visual
Профиль формата                          : Advanced Simple@L5
Параметр BVOP формата                    : 2
Параметр QPel формата                    : Нет
Параметр GMC формата                     : Без точки перехода
Параметр матрицы формата                 : Выборочная
Идентификатор кодека                     : XVID
Идентификатор кодека/Подсказка           : XviD
Продолжительность                        : 1 ч. 29 м.
Битрейт                                  : 1806 Кбит/сек
Ширина                                   : 720 пикселей
Высота                                   : 304 пикселя
Соотношение сторон                       : 2,35:1
Частота кадров                           : 23,976 (23976/1000) кадра/сек
Цветовое пространство                    : YUV
Субдискретизация насыщенности            : 4:2:0
Битовая глубина                          : 8 бит
Тип развёртки                            : Прогрессивная
Метод сжатия                             : С потерями
Бит/(Пиксели*Кадры)                      : 0.344
Размер потока                            : 1,12 Гбайт (82%)
Библиотека кодирования                   : XviD 1.2.1 (UTC 2008-12-04)

Аудио
Идентификатор                            : 1
Формат                                   : AC-3
Формат/Информация                        : Audio Coding 3
Расширение режима                        : CM (complete main)
Параметр Endianness формата              : Big
Идентификатор кодека                     : 2000
Продолжительность                        : 1 ч. 29 м.
Вид битрейта                             : Постоянный
Битрейт                                  : 384 Кбит/сек
Каналы                                   : 6 каналов
Расположение каналов                     : Front: L C R, Side: L R, LFE
Частота                                  : 48,0 КГц
Частота кадров                           : 31,250 кадров/сек (1536 spf)
Метод сжатия                             : С потерями
Размер потока                            : 245 Мбайт (17%)
Выравнивание                             : Разделение по промежуткам
Продолжительность промежутка             : 42  мс. (1,00 видеокадр)
Время предзагрузки промежутка            : 500  мс.
picpicpicpicpic
Для увеличения картинки щелкните мышкой по превью

Этот торрент недоступен для скачивания без регистрации, однако доступен по публичной magnet-ссылке (источники с публичных трекеров). Перед использованием ссылки прочтите, пожалуйста Пользовательское соглашение, а также как можно дольше оставайтесь на раздаче! Для того, чтобы скачать сам торрент-файл (который видит больше источников), а также для того, чтобы поблагодарить релизера, вам необходимо зарегистрироваться. Если регистрироваться лень - вы можете также попробовать скачать релиз по нашим партнерским ссылкам ниже.

[underverse.su].t65870.torrent
Трекер: Зарегистрирован   [ 05.05.2016 11:28 ]  

Статус: T временная (by makkol at 06.05.2016 23:13)
Поблагодарили: пока никто не поблагодарил...
Тип торрента: публичный - доступные источники с открытых трекеров: 
Размер: 1,37 GB (занимает 0,31 DVDR, для записи нужно 1 болванка DVDR/RW)
 
 
Похожие темы
Форум Тема Автор Торрент Отв. Посл. сооб.
Зарубежное кино [DVDRip, Low-Res HDRip, и т.д.] Обрученные / Betrothed (Джим Лейн) [2016 г., триллер, WEB-DLRip] MVO makkol
19 | 0

0 | 168

4

07.08.2016 12:20

T Зарубежное кино [HDDVDRip / BDRip / WEB-DL / HDTV 1080/720р] Обручённые обречённые / Committed (Стелена Клирис) [2014 г., мелодрама, комедия, WEB-DL 720p] Dub (iTunes) makkol
7 | 0

0 | 433

6

05.05.2016 11:35


Яндекс.Метрика powered by Sphinx


В Н И М А Н И Е
Сайт не распространяет и не хранит электронные версии произведений, а лишь бесплатно и без коммерческой выгоды (не требуя взамен платы,
SMS и т.д.) предоставляет доступ к создаваемому пользователями каталогу ссылок на торрент-файлы, которые содержат только списки хеш-сумм.
Убедительная просьба с жалобами обращаться напрямую к пользователю, разместившему торрент файл.

Вверх