Loading...
Error

Приглашение / The Invitation (Карин Кусама) [2015 г., триллер, HDRip] MVO

Статистика раздачи
Размер:  1,46 GB   |    Зарегистрирован:  7 месяцев   |    Скачан:  13 раз

Полного источника не было: 11 дней

Сидов:  0  |  0 KB/s  ]   Личеров:  0  |  0 KB/s  ]

* - сиды/пиры с внешних источников

   
 
Автор Сообщение

makkol Пол:Муж

04-Май-2016 14:36

Приглашение / The Invitation


Год выпуска: 2015
Жанр: триллер
Производство: США [Gamechanger Films, Invitation, The, Lege Artis, XYZ Films]
Режиссер: Карин Кусама
В ролях: Логан Маршалл-Грин, Эмаяци Коринеальди, Эйден Лавкамп, Мишель Крусик, Майк Дойл, Хорди Виласусо, Джей Ларсон, Марайа Делфино
Сюжет фильма:
Уилл отправляется на вечеринку к своей бывшей жене, где в скором времени приходит к выводу, что его экс-супруга что-то скрывает. Вместе с компанией своих новых друзей она готовится к осуществлению таинственного и ужасающего плана...

  • Мировая премьера: 13 марта 2015


Качество видео: HDRip

Продолжительность: 01:40:28
Формат: AVI
Видео: XviD, 720x304 (2.35:1), 23.976 fps, 1626 kbps
Аудио: русский, профессиональный многоголосый закадровый, AC3 5.1, 48 kHz, 448 kbps

Код:

Формат                                   : AVI
Формат/Информация                        : Audio Video Interleave
Размер файла                             : 1,46 Гбайт
Продолжительность                        : 1 ч. 40 м.
Общий поток                              : 2084 Кбит/сек
Программа кодирования                    : VirtualDubMod 1.5.10.2 (build 2540/release)
Библиотека кодирования                   : VirtualDubMod build 2540/release

Видео
Идентификатор                            : 0
Формат                                   : MPEG-4 Visual
Профиль формата                          : Advanced Simple@L5
Параметр BVOP формата                    : 2
Параметр QPel формата                    : Нет
Параметр GMC формата                     : Без точки перехода
Параметр матрицы формата                 : Выборочная
Идентификатор кодека                     : XVID
Идентификатор кодека/Подсказка           : XviD
Продолжительность                        : 1 ч. 40 м.
Битрейт                                  : 1626 Кбит/сек
Ширина                                   : 720 пикселей
Высота                                   : 304 пикселя
Соотношение сторон                       : 2,35:1
Частота кадров                           : 23,976 (24000/1001) кадра/сек
Цветовое пространство                    : YUV
Субдискретизация насыщенности            : 4:2:0
Битовая глубина                          : 8 бит
Тип развёртки                            : Прогрессивная
Метод сжатия                             : С потерями
Бит/(Пиксели*Кадры)                      : 0.310
Размер потока                            : 1,14 Гбайт (78%)
Библиотека кодирования                   : XviD 1.2.1 (UTC 2008-12-04)

Аудио
Идентификатор                            : 1
Формат                                   : AC-3
Формат/Информация                        : Audio Coding 3
Расширение режима                        : CM (complete main)
Параметр Endianness формата              : Big
Идентификатор кодека                     : 2000
Продолжительность                        : 1 ч. 40 м.
Вид битрейта                             : Постоянный
Битрейт                                  : 448 Кбит/сек
Каналы                                   : 6 каналов
Расположение каналов                     : Front: L C R, Side: L R, LFE
Частота                                  : 48,0 КГц
Частота кадров                           : 31,250 кадров/сек (1536 spf)
Метод сжатия                             : С потерями
Размер потока                            : 322 Мбайт (22%)
Выравнивание                             : Разделение по промежуткам
Продолжительность промежутка             : 42  мс. (1,00 видеокадр)
Время предзагрузки промежутка            : 500  мс.
Paradox & Omskbird records
Перевод: Татьяна Масаковская
Озвучивание: Владимир Рыбальченко, Алексей Гнеушев, Маргарита Сахно, Максим Максимов, Анастасия Филигина
Звукорежиссер: Павел Квентов
Внимание! Присутствуют вставки голосовой и текстовой рекламы


picpicpicpicpic
Для увеличения картинки щелкните мышкой по превью

Этот торрент недоступен для скачивания без регистрации, однако доступен по публичной magnet-ссылке (источники с публичных трекеров). Перед использованием ссылки прочтите, пожалуйста Пользовательское соглашение, а также как можно дольше оставайтесь на раздаче! Для того, чтобы скачать сам торрент-файл (который видит больше источников), а также для того, чтобы поблагодарить релизера, вам необходимо зарегистрироваться. Если регистрироваться лень - вы можете также попробовать скачать релиз по нашим партнерским ссылкам ниже.

[underverse.su].t65825.torrent
Трекер: Зарегистрирован   [ 04.05.2016 14:36 ]  

Статус: проверено (by makkol at 04.05.2016 23:09)
Поблагодарили: 1 человек
Тип торрента: публичный - доступные источники с открытых трекеров: 
Размер: 1,46 GB (занимает 0,33 DVDR, для записи нужно 1 болванка DVDR/RW)
 
 
Похожие темы
Форум Тема Автор Торрент Отв. Посл. сооб.
Зарубежное кино [DVDRip, Low-Res HDRip, и т.д.] Приглашение на развод / Divorce Invitation (С.В.Кришна Редди) [2012 г., мелодрама, комедия, WEB-DLRip] DVO (студия Elrom) + Original 90ytr90
1 | 0

0 | 1394

7

19.10.2013 17:05

Зарубежное кино [HDDVDRip / BDRip / WEB-DL / HDTV 1080/720р] Приглашение / The Invitation (Карин Кусама) [2015 г., триллер, BDRip 720p] MVO makkol
22 | 4

0 | 315

5

04.05.2016 14:43

Зарубежное кино [HDDVDRip / BDRip / WEB-DL / HDTV 1080/720р] Приглашение / The Invitation (Карин Кусама) [2015 г., триллер, BDRip 1080p] MVO makkol
5 | 0

0 | 321

5

04.05.2016 14:51


Яндекс.Метрика powered by Sphinx


В Н И М А Н И Е
Сайт не распространяет и не хранит электронные версии произведений, а лишь бесплатно и без коммерческой выгоды (не требуя взамен платы,
SMS и т.д.) предоставляет доступ к создаваемому пользователями каталогу ссылок на торрент-файлы, которые содержат только списки хеш-сумм.
Убедительная просьба с жалобами обращаться напрямую к пользователю, разместившему торрент файл.

Вверх