Loading...
Error

Чернобыль: жизнь после / Life Аfter: Сhernobyl [2014 г., документальный, наука, исследования, HDTVRip] DVO

Статистика раздачи
Размер:  559 MB   |    Зарегистрирован:  7 месяцев   |    Скачан:  2 раза

Полного источника не было: 1 месяц 23 дня

Сидов:  0  |  0 KB/s  ]   Личеров:  0  |  0 KB/s  ]

* - сиды/пиры с внешних источников

   
 
Автор Сообщение

ARI71 Пол:Муж

04-Май-2016 13:09

Чернобыль: жизнь после / Life Аfter: Сhernobyl


Год выпуска: 2014
Жанр: документальный, наука, исследования
Страна: США Discovery Channel
В ролях: Мэри-Энн Охота, Роб Нельсон
Сюжет фильма:
Вы увидите удивительные кадры, снятые операторами с риском для жизни и побываете там, где сегодня полновластными хозяевами чувствуют себя животные. Взгляните на покинутые и разрушающиеся дома, где остались все вещи, ведь в один миг они оказались заражены радиацией. В программе использованы уникальные архивные материалы, которые раньше находились под грифом «совершенно секретно». Вы также услышите интервью с очевидцами событий и ликвидаторами последствий аварии.
Качество видео: HDTVRip

Продолжительность: 00:43:28
Формат: AVI
Видео: XviD, 720x400, ~1595 kbps
Аудио: русский, двухголосый (профессиональный), AC3 2.0, ~192.00 kbps

Код:

Общее
Полное имя : D:\Чернобыль жизнь после.2014.HDTVRip RG HitWay.avi
Формат : AVI
Формат/Информация : Audio Video Interleave
Размер файла : 559 Мбайт
Продолжительность : 43 м.
Общий поток : 1799 Кбит/сек
Программа кодирования : Lavf57.25.100

Видео
Идентификатор : 0
Формат : MPEG-4 Visual
Профиль формата : Advanced Simple@L5
Параметр BVOP формата : 1
Параметр QPel формата : Нет
Параметр GMC формата : Без точки перехода
Параметр матрицы формата : Default (H.263)
Идентификатор кодека : XVID
Идентификатор кодека/Подсказка : XviD
Продолжительность : 43 м.
Битрейт : 1595 Кбит/сек
Ширина : 720 пикселей
Высота : 400 пикселей
Соотношение сторон : 16:9
Частота кадров : 30,000 кадров/сек
Цветовое пространство : YUV
Субдискретизация насыщенности : 4:2:0
Битовая глубина : 8 бит
Тип развёртки : Прогрессивная
Метод сжатия : С потерями
Бит/(Пиксели*Кадры) : 0.185
Размер потока : 496 Мбайт (89%)
Библиотека кодирования : XviD 67

Аудио
Идентификатор : 1
Формат : AC-3
Формат/Информация : Audio Coding 3
Расширение режима : CM (complete main)
Параметр Endianness формата : Big
Идентификатор кодека : 2000
Продолжительность : 43 м.
Вид битрейта : Постоянный
Битрейт : 192 Кбит/сек
Каналы : 2 канала
Расположение каналов : Front: L R
Частота : 48,0 КГц
Битовая глубина : 16 бит
Метод сжатия : С потерями
Размер потока : 59,7 Мбайт (11%)
Выравнивание : Соединение по промежуткам
Продолжительность промежутка : 32 мс. (0,96 видеокадр)
Время предзагрузки промежутка : 32 мс.
Релиз группы:

picpicpicpic
Для увеличения картинки щелкните мышкой по превью

Этот торрент недоступен для скачивания без регистрации, однако доступен по публичной magnet-ссылке (источники с публичных трекеров). Перед использованием ссылки прочтите, пожалуйста Пользовательское соглашение, а также как можно дольше оставайтесь на раздаче! Для того, чтобы скачать сам торрент-файл (который видит больше источников), а также для того, чтобы поблагодарить релизера, вам необходимо зарегистрироваться. Если регистрироваться лень - вы можете также попробовать скачать релиз по нашим партнерским ссылкам ниже.

[underverse.su].t65820.torrent
Трекер: Зарегистрирован   [ 04.05.2016 13:09 ]  

Статус: проверено (by makkol at 04.05.2016 13:31)
Поблагодарили: пока никто не поблагодарил...
Тип торрента: публичный - доступные источники с открытых трекеров: 
Размер: 559 MB (занимает 0,12 DVDR, для записи нужно 1 болванка DVDR/RW)
 
 
Похожие темы
Форум Тема Автор Торрент Отв. Посл. сооб.
xUSSR сериалы Чернобыль: Зона отчуждения (1 сезон: 1-8 серии из 8) (Андерс Банке) [2014 г., триллер, WEB-DLRip] nemos
3 | 0

0 | 1146

46

24.10.2014 08:08

Discovery Чернобыль: жизнь после / Life Аfter: Сhernobyl [2016 г., документальный, наука, исследования, HDTVRip 720p] DVO ARI71
45 | 0

0 | 811

9

02.05.2016 13:55


Яндекс.Метрика powered by Sphinx


В Н И М А Н И Е
Сайт не распространяет и не хранит электронные версии произведений, а лишь бесплатно и без коммерческой выгоды (не требуя взамен платы,
SMS и т.д.) предоставляет доступ к создаваемому пользователями каталогу ссылок на торрент-файлы, которые содержат только списки хеш-сумм.
Убедительная просьба с жалобами обращаться напрямую к пользователю, разместившему торрент файл.

Вверх