Loading...
Error

Когда уходят любимые (1-2 серии из 2) [2011 г., документальный, история, кинохроника, IPTVRip]

Статистика раздачи
Размер:  949 MB   |    Зарегистрирован:  7 месяцев   |    Скачан:  0 раз

Полного источника не было: 7 месяцев

Сидов:  0  |  0 KB/s  ]   Личеров:  0  |  0 KB/s  ]

* - сиды/пиры с внешних источников

   
 
Автор Сообщение

ARI71 Пол:Муж

03-Май-2016 13:50

Когда уходят любимые (1-2 серии из 2)


Год выпуска: 2011
Жанр: документальный, история, кинохроника
Страна: Россия «Фреш Фильм»
Режиссер: Алексей Панков, Виктор Антонов
Сюжет фильма:
Все сказки о любви заканчиваются одинаково: "Они жили долго и счастливо и умерли в один день". Но в жизни всё бывает иначе. Герои этого документального фильма расскажут о том, как принять утрату и, когда уходят любимые, научиться жить по-новому, осознав, что солнце все равно светит... Что помогло героям фильма справиться с горем? Актеры Елена Мольченко и Александр Фатюшин прожили вместе 17 лет. А потом он внезапно умер от инфаркта... После этого Елена перестала общаться с друзьями, неделями не выходила из дома. Пережить кризис ей помогла встреча с актером Игорем Воробьевым, тоже потерявшим жену. Лена и Игорь понимают друг друга с полуслова и считают, что их новая семья состоит как будто из четырех человек. Они не забывают тех, кто ушел... Первые годы после смерти Георгия Буркова его близкие терпели крайнюю нужду. Но сейчас вдова актера Татьяна Ухарова считает, что именно это помогло ей не сломаться - на ее плечи легла забота о самых близких людях Георгия Ивановича... Владислав Пьявко, оперный тенор, сорок лет прожил с оперной примадонной Ириной Архиповой. Они вместе пели, вместе организовали конкурс имени Глинки, вместе ругались и били дома тарелки... Когда певица ушла из жизни, Владислав Пьявко остался в полном одиночестве. И он решил, что в память о своей жене должен продолжить начатое ей дело… В фильме принимают участие: Александр Панкратов-Черный, Мария Буркова, Марина Хлебникова, Сергей Шустицкий, Игорь Воробьев, Елена Савина и другие.
Качество видео: IPTVRip

Продолжительность: 2 х ~ 00:39:00
Формат: AVI
Видео: XviD, 704x400, ~1497 kbps
Аудио: русский, (оригинал), MP3 2.0, ~192.00 kbps
(тех. данные всех серий идентичны)

Код:

Общее
Полное имя : D:\Когда уходят любимые (DaVinci)\1. Когда уходят любимые.avi
Формат : AVI
Формат/Информация : Audio Video Interleave
Размер файла : 475 Мбайт
Продолжительность : 39 м.
Общий поток : 1699 Кбит/сек
Библиотека кодирования : VirtualDub build 35491/release

Видео
Идентификатор : 0
Формат : MPEG-4 Visual
Профиль формата : Advanced Simple@L5
Параметр BVOP формата : 2
Параметр QPel формата : Нет
Параметр GMC формата : Без точки перехода
Параметр матрицы формата : Default (MPEG)
Режим смешивания : Сжатый битовый поток
Идентификатор кодека : XVID
Идентификатор кодека/Подсказка : XviD
Продолжительность : 39 м.
Битрейт : 1497 Кбит/сек
Ширина : 704 пикселя
Высота : 400 пикселей
Соотношение сторон : 16:9
Частота кадров : 25,000 кадров/сек
Цветовое пространство : YUV
Субдискретизация насыщенности : 4:2:0
Битовая глубина : 8 бит
Тип развёртки : Прогрессивная
Метод сжатия : С потерями
Бит/(Пиксели*Кадры) : 0.213
Размер потока : 418 Мбайт (88%)
Библиотека кодирования : XviD 73

Аудио
Идентификатор : 1
Формат : MPEG Audio
Версия формата : Version 1
Профиль формата : Layer 3
Режим : Joint stereo
Идентификатор кодека : 55
Идентификатор кодека/Подсказка : MP3
Продолжительность : 39 м.
Вид битрейта : Постоянный
Битрейт : 192 Кбит/сек
Каналы : 2 канала
Частота : 48,0 КГц
Метод сжатия : С потерями
Размер потока : 53,6 Мбайт (11%)
Выравнивание : Разделение по промежуткам
Продолжительность промежутка : 40 мс. (1,00 видеокадр)
Время предзагрузки промежутка : 500 мс.
Релиз группы:

picpicpicpicpic
Для увеличения картинки щелкните мышкой по превью

Этот торрент недоступен для скачивания без регистрации, однако доступен по публичной magnet-ссылке (источники с публичных трекеров). Перед использованием ссылки прочтите, пожалуйста Пользовательское соглашение, а также как можно дольше оставайтесь на раздаче! Для того, чтобы скачать сам торрент-файл (который видит больше источников), а также для того, чтобы поблагодарить релизера, вам необходимо зарегистрироваться. Если регистрироваться лень - вы можете также попробовать скачать релиз по нашим партнерским ссылкам ниже.

[underverse.su].t65756.torrent
Трекер: Зарегистрирован   [ 03.05.2016 13:50 ]  

Статус: проверено (by makkol at 03.05.2016 14:05)
Поблагодарили: пока никто не поблагодарил...
Тип торрента: публичный - доступные источники с открытых трекеров: 
Размер: 949 MB (занимает 0,21 DVDR, для записи нужно 1 болванка DVDR/RW)
 
 

Яндекс.Метрика powered by Sphinx


В Н И М А Н И Е
Сайт не распространяет и не хранит электронные версии произведений, а лишь бесплатно и без коммерческой выгоды (не требуя взамен платы,
SMS и т.д.) предоставляет доступ к создаваемому пользователями каталогу ссылок на торрент-файлы, которые содержат только списки хеш-сумм.
Убедительная просьба с жалобами обращаться напрямую к пользователю, разместившему торрент файл.

Вверх