Loading...
Error

BBC. Человек на Марсе. Экспедиция на красную планету / Man on Mars: Mission to the Red Planet [2014 г., документальный, познавательный, космос, HDTVRip] DVO

Статистика раздачи
Размер:  555 MB   |    Зарегистрирован:  7 месяцев   |    Скачан:  3 раза

Полного источника не было: 1 месяц 3 дня

Сидов:  0  |  0 KB/s  ]   Личеров:  0  |  0 KB/s  ]

* - сиды/пиры с внешних источников

   
 
Автор Сообщение

ARI71 Пол:Муж

03-Май-2016 12:37

BBC. Человек на Марсе. Экспедиция на красную планету / Man on Mars: Mission to the Red Planet


Год выпуска: 2014
Жанр: документальный, познавательный, космос
Страна: Великобритания BBC
Режиссер: Алекс Хирл
Сюжет фильма:
Марс... Красная планета. Многие поколения хотели узнать, есть ли там жизнь. Некоторые мечтают прогуляться по его поверхности. Сейчас, спустя более чем через 40 лет после высадки человека на Луну, НАСА ведет активную работу над пилотируемым полетом на Марс. Это очень трудная задача, связанная с большим риском для участников такой экспедиции. Для полета потребуются ракеты нового класса, новые способы выживания в космическом пространстве и новые космонавты... Что уже сделано и что еще предстоит сделать в этом направлении и способно ли НАСА воплотить в жизнь заветную мечту человека?
Качество видео: HDTVRip

Продолжительность: 00:49:29
Формат: AVI
Видео: XviD, 720x400, ~1430 kbps
Аудио: русский, двухголосый (профессиональный), MP3 2.0, ~128.00 kbps

Код:

Общее
Полное имя : D:\Chelovek.na.Marse.2014.XviD.HDTVRip.by.GeneralFilm.avi
Формат : AVI
Формат/Информация : Audio Video Interleave
Размер файла : 555 Мбайт
Продолжительность : 49 м.
Общий поток : 1568 Кбит/сек
Программа кодирования : VirtualDubMod 1.5.10.3 | www.virtualdub-fr.org || (build 2550/release)
Библиотека кодирования : VirtualDubMod build 2550/release

Видео
Идентификатор : 0
Формат : MPEG-4 Visual
Профиль формата : Advanced Simple@L5
Параметр BVOP формата : 1
Параметр QPel формата : Нет
Параметр GMC формата : Без точки перехода
Параметр матрицы формата : Выборочная
Идентификатор кодека : XVID
Идентификатор кодека/Подсказка : XviD
Продолжительность : 49 м.
Битрейт : 1430 Кбит/сек
Ширина : 720 пикселей
Высота : 400 пикселей
Соотношение сторон : 16:9
Частота кадров : 25,000 кадров/сек
Цветовое пространство : YUV
Субдискретизация насыщенности : 4:2:0
Битовая глубина : 8 бит
Тип развёртки : Прогрессивная
Метод сжатия : С потерями
Бит/(Пиксели*Кадры) : 0.199
Размер потока : 506 Мбайт (91%)
Библиотека кодирования : XviD 73

Аудио
Идентификатор : 1
Формат : MPEG Audio
Версия формата : Version 1
Профиль формата : Layer 3
Идентификатор кодека : 55
Идентификатор кодека/Подсказка : MP3
Продолжительность : 49 м.
Вид битрейта : Постоянный
Битрейт : 128 Кбит/сек
Каналы : 2 канала
Частота : 48,0 КГц
Метод сжатия : С потерями
Размер потока : 45,3 Мбайт (8%)
Выравнивание : Соединение по промежуткам
Продолжительность промежутка : 40 мс. (1,00 видеокадр)
Время предзагрузки промежутка : 504 мс.
Библиотека кодирования : LAME3.99r
Настройки программы : -m s -V 4 -q 0 -lowpass 17 -b 128
picpicpicpicpic
Для увеличения картинки щелкните мышкой по превью

Этот торрент недоступен для скачивания без регистрации, однако доступен по публичной magnet-ссылке (источники с публичных трекеров). Перед использованием ссылки прочтите, пожалуйста Пользовательское соглашение, а также как можно дольше оставайтесь на раздаче! Для того, чтобы скачать сам торрент-файл (который видит больше источников), а также для того, чтобы поблагодарить релизера, вам необходимо зарегистрироваться. Если регистрироваться лень - вы можете также попробовать скачать релиз по нашим партнерским ссылкам ниже.

[underverse.su].t65754.torrent
Трекер: Зарегистрирован   [ 03.05.2016 12:37 ]  

Статус: проверено (by makkol at 03.05.2016 12:39)
Поблагодарили: пока никто не поблагодарил...
Тип торрента: публичный - доступные источники с открытых трекеров: 
Размер: 555 MB (занимает 0,12 DVDR, для записи нужно 1 болванка DVDR/RW)
 
 

Яндекс.Метрика powered by Sphinx


В Н И М А Н И Е
Сайт не распространяет и не хранит электронные версии произведений, а лишь бесплатно и без коммерческой выгоды (не требуя взамен платы,
SMS и т.д.) предоставляет доступ к создаваемому пользователями каталогу ссылок на торрент-файлы, которые содержат только списки хеш-сумм.
Убедительная просьба с жалобами обращаться напрямую к пользователю, разместившему торрент файл.

Вверх