Loading...
Error

Смертельная семёрка / Dead 7 (Денни Роу) [2016 г., ужасы, вестерн, WEBRip] VO

Статистика раздачи
Размер:  1,37 GB   |    Зарегистрирован:  7 месяцев   |    Скачан:  7 раз

Полного источника не было: 8 дней

Сидов:  0  |  0 KB/s  ]   Личеров:  0  |  0 KB/s  ]

* - сиды/пиры с внешних источников

   
 
Автор Сообщение

makkol Пол:Муж

02-Май-2016 23:00

Смертельная семёрка / Dead 7


Год выпуска: 2016
Жанр: ужасы, вестерн
Производство: США [Global Asylum, Kaotic Productions]
Режиссер: Денни Роу
В ролях: Ник Картер, Кэрри Киган, Джои Фатоне, Эй Джей МакЛин, Хоуи Дороу, Лорен Китт, Крис Киркпатрик, Джефф Тиммонс, Эрик-Майкл Эстрада, Дебра Уилсон
Сюжет фильма:
Это пост-апокалиптический вестерн, в котором группа убийц собираются избавить маленький городок от зомби-чумы.

  • Мировая премьера: 21 ноября 2015


Качество видео: WEBRip

Продолжительность: 01:26:18
Формат: AVI
Видео: XviD, 720x400 (16:9), 23.976 fps, 2067 kbps
Аудио: русский, любительский одноголосый закадровый, AC3 2.0, 48 kHz, 192 kbps

Код:

Format : AVI
Format/Info : Audio Video Interleave
File size : 1.37 GiB
Duration : 1h 26mn
Overall bit rate : 2 269 Kbps

Video
ID : 0
Format : MPEG-4 Visual
Format profile : Advanced Simple@L5
Format settings, BVOP : 2
Format settings, QPel : No
Format settings, GMC : No warppoints
Format settings, Matrix : Default (H.263)
Codec ID : XVID
Codec ID/Hint : XviD
Duration : 1h 26mn
Bit rate : 2 067 Kbps
Width : 720 pixels
Height : 400 pixels
Display aspect ratio : 16:9
Frame rate : 23.976 fps
Color space : YUV
Chroma subsampling : 4:2:0
Bit depth : 8 bits
Scan type : Progressive
Compression mode : Lossy
Bits/(Pixel*Frame) : 0.299
Stream size : 1.25 GiB (91%)
Writing library : XviD 66

Audio
ID : 1
Format : AC-3
Format/Info : Audio Coding 3
Mode extension : CM (complete main)
Format settings, Endianness : Big
Codec ID : 2000
Duration : 1h 26mn
Bit rate mode : Constant
Bit rate : 192 Kbps
Channel(s) : 2 channels
Channel positions : Front: L R
Sampling rate : 48.0 KHz
Compression mode : Lossy
Stream size : 119 MiB (8%)
Alignment : Split accross interleaves
Interleave, duration : 42 ms (1.00 video frame)
Interleave, preload duratio : 500 ms
Перевод: Enigma
Озвучивание: Васька Куролесов
picpicpicpicpic
Для увеличения картинки щелкните мышкой по превью

Этот торрент недоступен для скачивания без регистрации, однако доступен по публичной magnet-ссылке (источники с публичных трекеров). Перед использованием ссылки прочтите, пожалуйста Пользовательское соглашение, а также как можно дольше оставайтесь на раздаче! Для того, чтобы скачать сам торрент-файл (который видит больше источников), а также для того, чтобы поблагодарить релизера, вам необходимо зарегистрироваться. Если регистрироваться лень - вы можете также попробовать скачать релиз по нашим партнерским ссылкам ниже.

[underverse.su].t65741.torrent
Трекер: Зарегистрирован   [ 02.05.2016 23:00 ]  

Статус: проверено (by makkol at 04.05.2016 22:56)
Поблагодарили: пока никто не поблагодарил...
Тип торрента: публичный - доступные источники с открытых трекеров: 
Размер: 1,37 GB (занимает 0,31 DVDR, для записи нужно 1 болванка DVDR/RW)
 
 
Похожие темы
Форум Тема Автор Торрент Отв. Посл. сооб.
Зарубежное кино [DVDRip, Low-Res HDRip, и т.д.] Смертельная гонка: Франкенштейн жив / Death Race 2 (Роэль Рейн ) [2010 г., фантастика, боевик, триллер , BDRip] WeaSel
0 | 0

4 | 775

4

13.01.2011 13:28

Зарубежное кино [DVDRip, Low-Res HDRip, и т.д.] Смертельная гонка 2: Франкенштейн жив / Death Race 2 (Роэль Рейн ) [2010 г., фантастика, боевик, триллер , HDRip] Dub R5 _Dante_
2 | 0

5 | 845

27

10.10.2012 09:39

Зарубежное кино [DVDRip, Low-Res HDRip, и т.д.] Смертельная гонка 3 / Death Race: Inferno [Urated] (Роэль Рейн) [2013 г., боевик, триллер, криминал, HDRip] VO (Kerob) + Eng 90ytr90
2 | 0

0 | 1727

64

13.01.2013 09:30

Зарубежное кино [DVDRip, Low-Res HDRip, и т.д.] Смертельная гонка 3 / Death Race: Inferno [Unrated] (Роэль Рейн) [2013 г., боевик, триллер, криминал, HDRip] VO (Kerob) 90ytr90
1 | 0

0 | 801

16

13.01.2013 09:35

Зарубежное кино [DVDRip, Low-Res HDRip, и т.д.] Смертельная гонка 3 / Death Race: Inferno [Unrated] (Роэль Рейн) [2013 г., боевик, триллер, криминал, HDRip] VO (Kerob) 90ytr90
24 | 0

0 | 819

11

13.01.2013 09:43

Зарубежное кино [DVDRip, Low-Res HDRip, и т.д.] Смертельная гонка 3 / Death Race: Inferno [Unrated] (Роэль Рейн) [2013 г., боевик, триллер, криминал, HDRip] DVO (Antasia, adrenal_in) 90ytr90
5 | 0

0 | 800

13

14.01.2013 15:09

Зарубежное кино [DVDRip, Low-Res HDRip, и т.д.] Смертельная гонка 3 / Death Race: Inferno [Unrated] (Роэль Рейн) [2013 г., боевик, триллер, криминал, HDRip] Dub + Eng 90ytr90
0 | 0

1 | 728

16

13.02.2013 10:36

Зарубежное кино [DVDRip, Low-Res HDRip, и т.д.] Смертельная гонка 3 / Death Race: Inferno [Unrated] (Роэль Рейн) [2013 г., боевик, триллер, криминал, HDRip] Dub 90ytr90
11 | 0

2 | 1473

48

28.03.2013 19:17

Зарубежное кино [DVDRip, Low-Res HDRip, и т.д.] Смертельная гонка 3 / Death Race: Inferno [Unrated] (Роэль Рейн) [2013 г., боевик, триллер, криминал, HDRip] Dub 90ytr90
4 | 0

0 | 731

5

04.02.2013 07:44

Зарубежное кино HQ Смертельная гонка / Death Race (Пол У. С. Андерсон) [2008 г., фантастика, боевик, триллер, BDRip] Печаль'ka
0 | 0

6 | 2665

13

18.10.2011 13:19


Яндекс.Метрика powered by Sphinx


В Н И М А Н И Е
Сайт не распространяет и не хранит электронные версии произведений, а лишь бесплатно и без коммерческой выгоды (не требуя взамен платы,
SMS и т.д.) предоставляет доступ к создаваемому пользователями каталогу ссылок на торрент-файлы, которые содержат только списки хеш-сумм.
Убедительная просьба с жалобами обращаться напрямую к пользователю, разместившему торрент файл.

Вверх