Loading...
Error

Познер. Интервью с Константином Райкиным [2011 г., документальная, информационно-аналитическая программа, SatRip]

Статистика раздачи
Размер:  506 MB   |    Зарегистрирован:  7 месяцев   |    Скачан:  1 раз

Полного источника не было: 4 месяца 21 день

Сидов:  0  |  0 KB/s  ]   Личеров:  0  |  0 KB/s  ]

* - сиды/пиры с внешних источников

   
 
Автор Сообщение

ARI71 Пол:Муж

02-Май-2016 14:58

Познер. Интервью с Константином Райкиным


Год выпуска: 2011
Жанр: документальная, информационно-аналитическая программа
Страна: Россия Первый канал
Автор и ведущий: Владимир Познер
В ролях: Константин Райкин
Сюжет фильма:
Авторская программа Владимира Познера. Владимир Познер задаёт вопросы политикам, общественным деятелям, деятелям культуры, искусства, науки, спорта. Беседа может быть как привязана к актуальным событиям недели, так и не связана с последними событиями. Любой желающий может предложить персону, которая была бы интересна аудитории. А также сформулировать вопросы, которые хотелось бы задать гостю...
Гость программы этого выпуска – Константин Райкин, актeр театра и кино, руководитель московского театра «Сатирикон».

Константи́н Арка́дьевич Ра́йкин (род. 8 июля 1950, Ленинград) — российский актёр театра и кино. Народный артист Российской Федерации (1992), руководитель московского театра «Сатирикон», профессор.

Качество видео: SatRip

Продолжительность: 00:53:36
Формат: AVI
Видео: DivX 5, 704x448, ~1181 kbps
Аудио: русский, (оригинал), MP3 2.0, ~128.00 kbps

Код:

Общее
Полное имя : D:\P-094_Konstantin_Rajkin.avi
Формат : AVI
Формат/Информация : Audio Video Interleave
Размер файла : 506 Мбайт
Продолжительность : 53 м.
Общий поток : 1318 Кбит/сек
Библиотека кодирования : VirtualDub-MPEG2 build 24600/release

Видео
Идентификатор : 0
Формат : MPEG-4 Visual
Параметр BVOP формата : 1
Параметр QPel формата : Нет
Параметр GMC формата : Без точки перехода
Параметр матрицы формата : Default (H.263)
Режим смешивания : Сжатый битовый поток
Идентификатор кодека : DX50
Идентификатор кодека/Подсказка : DivX 5
Продолжительность : 53 м.
Битрейт : 1181 Кбит/сек
Ширина : 704 пикселя
Высота : 448 пикселей
Соотношение сторон : 16:10
Частота кадров : 25,000 кадров/сек
Цветовое пространство : YUV
Субдискретизация насыщенности : 4:2:0
Битовая глубина : 8 бит
Тип развёртки : Прогрессивная
Метод сжатия : С потерями
Бит/(Пиксели*Кадры) : 0.150
Размер потока : 453 Мбайт (90%)
Библиотека кодирования : DivX 6.8.5 (UTC 2009-08-20)

Аудио
Идентификатор : 1
Формат : MPEG Audio
Версия формата : Version 1
Профиль формата : Layer 3
Режим : Joint stereo
Расширение режима : MS Stereo
Идентификатор кодека : 55
Идентификатор кодека/Подсказка : MP3
Продолжительность : 53 м.
Вид битрейта : Постоянный
Битрейт : 128 Кбит/сек
Каналы : 2 канала
Частота : 48,0 КГц
Метод сжатия : С потерями
Размер потока : 49,1 Мбайт (10%)
Выравнивание : Разделение по промежуткам
Продолжительность промежутка : 40 мс. (1,00 видеокадр)
Время предзагрузки промежутка : 500 мс.
picpicpicpicpic
Для увеличения картинки щелкните мышкой по превью

Этот торрент недоступен для скачивания без регистрации, однако доступен по публичной magnet-ссылке (источники с публичных трекеров). Перед использованием ссылки прочтите, пожалуйста Пользовательское соглашение, а также как можно дольше оставайтесь на раздаче! Для того, чтобы скачать сам торрент-файл (который видит больше источников), а также для того, чтобы поблагодарить релизера, вам необходимо зарегистрироваться. Если регистрироваться лень - вы можете также попробовать скачать релиз по нашим партнерским ссылкам ниже.

[underverse.su].t65726.torrent
Трекер: Зарегистрирован   [ 02.05.2016 14:58 ]  

Статус: проверено (by makkol at 02.05.2016 16:07)
Поблагодарили: пока никто не поблагодарил...
Тип торрента: публичный - доступные источники с открытых трекеров: 
Размер: 506 MB (занимает 0,11 DVDR, для записи нужно 1 болванка DVDR/RW)
 
 
Похожие темы
Форум Тема Автор Торрент Отв. Посл. сооб.
Информационно-аналитические передачи Познер. Интервью с Андреем Смоляковым [2015 г., документальная, информационно-аналитическая программа, SatRip] ARI71
0 | 0

0 | 852

0

06.05.2016 11:13

Информационно-аналитические передачи Познер. Интервью с Натальей Солженицыной [2014 г., документальная, информационно-аналитическая программа, WEBRip] ARI71
0 | 1

0 | 530

3

26.06.2016 14:30


Яндекс.Метрика powered by Sphinx


В Н И М А Н И Е
Сайт не распространяет и не хранит электронные версии произведений, а лишь бесплатно и без коммерческой выгоды (не требуя взамен платы,
SMS и т.д.) предоставляет доступ к создаваемому пользователями каталогу ссылок на торрент-файлы, которые содержат только списки хеш-сумм.
Убедительная просьба с жалобами обращаться напрямую к пользователю, разместившему торрент файл.

Вверх