Loading...
Error

Чернобыль: жизнь после / Life Аfter: Сhernobyl [2016 г., документальный, наука, исследования, HDTVRip 720p] DVO

Статистика раздачи
Размер:  1,27 GB   |    Зарегистрирован:  7 месяцев   |    Скачан:  9 раз
Сидов:  1  |  0 KB/s  ]   Личеров:  0  |  0 KB/s  ]

* - сиды/пиры с внешних источников

   
 
Автор Сообщение

ARI71 Пол:Муж

02-Май-2016 13:55

Чернобыль: жизнь после / Life Аfter: Сhernobyl


Год выпуска: 2016
Жанр: документальный, наука, исследования
Страна: США Discovery Channel
В ролях: Мэри-Энн Охота, Роб Нельсон
Сюжет фильма:
Вы увидите удивительные кадры, снятые операторами с риском для жизни и побываете там, где сегодня полновластными хозяевами чувствуют себя животные. Взгляните на покинутые и разрушающиеся дома, где остались все вещи, ведь в один миг они оказались заражены радиацией. В программе использованы уникальные архивные материалы, которые раньше находились под грифом «совершенно секретно». Вы также услышите интервью с очевидцами событий и ликвидаторами последствий аварии.
Качество видео: HDTVRip 720p

Продолжительность: 00:44:00
Формат: MKV
Видео: x264, 1280x720, ~4000 kbps
Аудио: русский, двухголосый (профессиональный), MP2 2.0, ~192.00 kbps

Код:

Общее
Уникальный идентификатор : 8242095042961574583588575864000759566 (0x6335EA8E7753A6C3F2C6355D19E470E)
Полное имя : D:Чернобыль жизнь после.HitWay.mkv
Формат : Matroska
Версия формата : Version 2
Размер файла : 1,27 Гбайт
Продолжительность : 43 м.
Режим общего битрейта : Постоянный
Общий поток : 4197 Кбит/сек
Программа кодирования : Lavf54.63.104
Библиотека кодирования : Lavf54.63.104

Видео
Идентификатор : 1
Формат : AVC
Формат/Информация : Advanced Video Codec
Профиль формата : High@L4.1
Параметр CABAC формата : Да
Параметр ReFrames формата : 3 кадра
Идентификатор кодека : V_MPEG4/ISO/AVC
Продолжительность : 43 м.
Вид битрейта : Постоянный
Битрейт : 4000 Кбит/сек
Ширина : 1280 пикселей
Высота : 720 пикселей
Соотношение сторон : 16:9
Режим частоты кадров : Постоянный
Частота кадров : 30,000 кадров/сек
Стандарт вещания : NTSC
Цветовое пространство : YUV
Субдискретизация насыщенности : 4:2:0
Битовая глубина : 8 бит
Тип развёртки : Прогрессивная
Бит/(Пиксели*Кадры) : 0.145
Размер потока : 1,19 Гбайт (93%)
Default : Нет
Forced : Нет
Цветовой диапазон : Limited
Основные цвета : BT.709
Характеристики трансфера : BT.709
Коэффициенты матрицы : BT.709

Аудио
Идентификатор : 2
Формат : MPEG Audio
Версия формата : Version 1
Профиль формата : Layer 2
Идентификатор кодека : A_MPEG/L2
Идентификатор кодека/Подсказка : MP2
Продолжительность : 43 м.
Вид битрейта : Постоянный
Битрейт : 192 Кбит/сек
Каналы : 2 канала
Частота : 48,0 КГц
Метод сжатия : С потерями
Задержка видео : -19 мс.
Размер потока : 59,5 Мбайт (5%)
Язык : English
Default : Да
Forced : Нет
picpicpicpicpic
Для увеличения картинки щелкните мышкой по превью

Этот торрент недоступен для скачивания без регистрации, однако доступен по публичной magnet-ссылке (источники с публичных трекеров). Перед использованием ссылки прочтите, пожалуйста Пользовательское соглашение, а также как можно дольше оставайтесь на раздаче! Для того, чтобы скачать сам торрент-файл (который видит больше источников), а также для того, чтобы поблагодарить релизера, вам необходимо зарегистрироваться. Если регистрироваться лень - вы можете также попробовать скачать релиз по нашим партнерским ссылкам ниже.

[underverse.su].t65723.torrent
Трекер: Зарегистрирован   [ 02.05.2016 13:55 ]  

Статус: проверено (by makkol at 02.05.2016 16:05)
Поблагодарили: 2 человека
Тип торрента: публичный - доступные источники с открытых трекеров: 
Размер: 1,27 GB (занимает 0,29 DVDR, для записи нужно 1 болванка DVDR/RW)
 
 
Похожие темы
Форум Тема Автор Торрент Отв. Посл. сооб.
xUSSR сериалы Чернобыль: Зона отчуждения (1 сезон: 1-8 серии из 8) (Андерс Банке) [2014 г., триллер, WEB-DLRip] nemos
3 | 0

0 | 1143

46

24.10.2014 08:08

Discovery Чернобыль: жизнь после / Life Аfter: Сhernobyl [2014 г., документальный, наука, исследования, HDTVRip] DVO ARI71
2 | 0

0 | 444

2

04.05.2016 13:09


Яндекс.Метрика powered by Sphinx


В Н И М А Н И Е
Сайт не распространяет и не хранит электронные версии произведений, а лишь бесплатно и без коммерческой выгоды (не требуя взамен платы,
SMS и т.д.) предоставляет доступ к создаваемому пользователями каталогу ссылок на торрент-файлы, которые содержат только списки хеш-сумм.
Убедительная просьба с жалобами обращаться напрямую к пользователю, разместившему торрент файл.

Вверх