Loading...
Error

Возмездие Макса Кибла / Max Keeble's Big Move (Тим Хилл) [2001 г., комедия, семейный, DVDRip] MVO

Статистика раздачи
Размер:  698 MB   |    Зарегистрирован:  7 месяцев   |    Скачан:  5 раз

Полного источника не было: 1 месяц 13 дней

Сидов:  0  |  0 KB/s  ]   Личеров:  0  |  0 KB/s  ]

* - сиды/пиры с внешних источников

   
 
Автор Сообщение

makkol Пол:Муж

01-Май-2016 14:30

Возмездие Макса Кибла / Max Keeble's Big Move


Год выпуска: 2001
Жанр: комедия, семейный
Производство: США [Walt Disney Pictures]
Режиссер: Тим Хилл
В ролях: Алекс Д. Линц, Ларри Миллер, Джейми Кеннеди, Зена Грей, Джош Пек, Нора Данн, Роберт Кэррадайн, Клифтон Дэвис, Эми Хилл, Ноэль Фишер, Орландо Браун, Эмбер Валлетта
Сюжет фильма:
Узнав, что его семья переезжает, семиклассник Макс Кибл ужасно обрадовался. Во-первых, потому, что вскоре скажет «прощай» банде хулиганов, которые постоянно третировали его в местной школе, а заодно и мерзкому, доставучему директору этого учебного заведения.
Во-вторых, потому, что последняя неделя перед отъездом — очень удобное время для прощальной мести. Что ж, изобретательный шалопай напоследок устроит своим обидчикам веселую жизнь.
Однако, отведя душеньку, будет ли он готов к сюрпризам, о которых и помыслить не мог? Ведь спасительный переезд… отменяется?

  • Мировая премьера: 5 октября 2001


Качество видео: DVDRip

Продолжительность: 01:26:25
Формат: AVI
Видео: XviD, 512x384 (4:3), 23.976 fps, 1008 kbps
Аудио: русский, профессиональный многоголосый закадровый (СТС), MP3 2.0, 48 kHz, 112 kbps

Код:

Общее
Полное имя                               : Max.Keeble's.Big.Move.2001.DVDRip.avi
Формат                                   : AVI
Формат/Информация                        : Audio Video Interleave
Размер файла                             : 698 Мбайт
Продолжительность                        : 1 ч. 26 м.
Общий поток                              : 1130 Кбит/сек
Программа кодирования                    : VirtualDubMod 1.5.10.2 (build 2540/release)
Библиотека кодирования                   : VirtualDubMod build 2540/release

Видео
Идентификатор                            : 0
Формат                                   : MPEG-4 Visual
Профиль формата                          : Advanced Simple@L5
Параметр BVOP формата                    : 1
Параметр QPel формата                    : Нет
Параметр GMC формата                     : Без точки перехода
Параметр матрицы формата                 : Выборочная
Идентификатор кодека                     : XVID
Идентификатор кодека/Подсказка           : XviD
Продолжительность                        : 1 ч. 26 м.
Битрейт                                  : 1008 Кбит/сек
Ширина                                   : 512 пикселей
Высота                                   : 384 пикселя
Соотношение сторон                       : 4:3
Частота кадров                           : 23,976 кадра/сек
Цветовое пространство                    : YUV
Субдискретизация насыщенности            : 4:2:0
Битовая глубина                          : 8 бит
Тип развёртки                            : Прогрессивная
Метод сжатия                             : С потерями
Бит/(Пиксели*Кадры)                      : 0.214
Размер потока                            : 623 Мбайт (89%)
Библиотека кодирования                   : XviD 1.2.1 (UTC 2008-12-04)

Аудио
Идентификатор                            : 1
Формат                                   : MPEG Audio
Версия формата                           : Version 1
Профиль формата                          : Layer 3
Режим                                    : Joint stereo
Расширение режима                        : MS Stereo
Идентификатор кодека                     : 55
Идентификатор кодека/Подсказка           : MP3
Продолжительность                        : 1 ч. 26 м.
Вид битрейта                             : Постоянный
Битрейт                                  : 112 Кбит/сек
Каналы                                   : 2 канала
Частота                                  : 48,0 КГц
Метод сжатия                             : С потерями
Размер потока                            : 69,2 Мбайт (10%)
Выравнивание                             : Соединение по промежуткам
Продолжительность промежутка             : 42  мс. (1,00 видеокадр)
Время предзагрузки промежутка            : 504  мс.
Язык                                     : English
picpicpicpicpic
Для увеличения картинки щелкните мышкой по превью

Этот торрент недоступен для скачивания без регистрации, однако доступен по публичной magnet-ссылке (источники с публичных трекеров). Перед использованием ссылки прочтите, пожалуйста Пользовательское соглашение, а также как можно дольше оставайтесь на раздаче! Для того, чтобы скачать сам торрент-файл (который видит больше источников), а также для того, чтобы поблагодарить релизера, вам необходимо зарегистрироваться. Если регистрироваться лень - вы можете также попробовать скачать релиз по нашим партнерским ссылкам ниже.

[underverse.su].t65709.torrent
Трекер: Зарегистрирован   [ 01.05.2016 14:30 ]  

Статус: проверено (by makkol at 03.05.2016 23:29)
Поблагодарили: пока никто не поблагодарил...
Тип торрента: публичный - доступные источники с открытых трекеров: 
Размер: 698 MB (занимает 0,16 DVDR, для записи нужно 1 болванка DVDR/RW)
 
 
Похожие темы
Форум Тема Автор Торрент Отв. Посл. сооб.
Зарубежное кино [DVDRip, Low-Res HDRip, и т.д.] Возмездие Эрпа / Wyatt Earp's Revenge (Майкл Фейфер) [2012 г., Драма, вестерн, DVDRip] nemos
0 | 0

0 | 728

49

14.09.2012 15:37

Зарубежное кино [DVDRip, Low-Res HDRip, и т.д.] Возмездие / The Railway Man (Джонатан Теплицки / Jonathan Teplitzky) [2013 г., драма, биография, HDRip] VO (R.A.I.M) 90ytr90
12 | 0

0 | 1228

11

29.04.2014 04:40

Зарубежное кино [DVDRip, Low-Res HDRip, и т.д.] Возмездие / The Railway Man (Джонатан Теплицки / Jonathan Teplitzky) [2013 г., драма, биография, HDRip] DVO (qwerty & R.A.I.M) 90ytr90
20 | 3

0 | 1747

17

30.04.2014 13:26

Зарубежное кино [DVDRip, Low-Res HDRip, и т.д.] Возмездие / The Railway Man (Джонатан Теплицки / Jonathan Teplitzky) [2013 г., драма, биография, HDRip] DVO (Пиратская Студия) 90ytr90
5 | 0

0 | 1808

4

04.05.2014 19:40

Зарубежное кино [DVDRip, Low-Res HDRip, и т.д.] Возмездие / Edge of Darkness (Мартин Кэмпбелл) [2010 г., триллер, драма, детектив, BDRip-AVC] Dub + Original (Eng) + Subs 90ytr90
0 | 0

0 | 198

2

10.02.2015 06:08

Зарубежное кино [DVDRip, Low-Res HDRip, и т.д.] Возмездие Эрпа / Wyatt Earp's Revenge (Майкл Фейфер) [2012 г., Драма, Вестерн, HDTVRip] MVO (RUS) + Original (ENG) + (CZE) + (POL) Ведьмочка
1 | 0

0 | 614

10

15.10.2014 23:37

Зарубежное кино [DVDRip, Low-Res HDRip, и т.д.] Возмездие / Edge of Darkness (Мартин Кэмпбелл / Martin Campbell) [2010 г., триллер, драма, детектив, HDRip] Dub 90ytr90
1 | 0

0 | 281

6

10.02.2015 16:57

Зарубежные сериалы Возмездие / Revenge / Сезон 1 / Серии 1-22 (22) (Мэтт Эрл Бисли, Филлип Нойс, Сэнфорд Букставер) [2011-2012 г., Драма, триллер, WEBDLRip] MVO + Original Чертёнок
4 | 1

0 | 830

5

28.05.2013 10:34

Зарубежные сериалы Возмездие / Revenge / Сезон 2 / Серии 1-22 (22) (Мэтт Эрл Бисли, Филлип Нойс,) [2012-2013 г., Драма, триллер, WEBDLRip] MVO + Original Чертёнок
2 | 0

0 | 786

2

28.05.2013 11:04

Зарубежные сериалы Возмездие / Revenge / Season 4 (1-23 из 23) (Кеннет Финк, Мэтт Эрл Бисли, Бобби Рот) [2014 г., триллер, драма, мелодрама, детектив, WEB-DLRip] DVO + Original ultarasbarcelona
1 | 0

0 | 357

3

13.05.2015 08:54


Яндекс.Метрика powered by Sphinx


В Н И М А Н И Е
Сайт не распространяет и не хранит электронные версии произведений, а лишь бесплатно и без коммерческой выгоды (не требуя взамен платы,
SMS и т.д.) предоставляет доступ к создаваемому пользователями каталогу ссылок на торрент-файлы, которые содержат только списки хеш-сумм.
Убедительная просьба с жалобами обращаться напрямую к пользователю, разместившему торрент файл.

Вверх