Loading...
Error

Рейхсфюрер СС / Reichsfuhrer-SS (Дэвид Б. Стюарт III) [2015 г., ужасы, триллер, драма, детектив, военный, DVDRip] DVO

Статистика раздачи
Размер:  1,37 GB   |    Зарегистрирован:  7 месяцев   |    Скачан:  21 раз

Полного источника не было: 2 дня 16 часов

Сидов:  0  |  0 KB/s  ]   Личеров:  0  |  0 KB/s  ]

* - сиды/пиры с внешних источников

   
 
Автор Сообщение

makkol Пол:Муж

01-Май-2016 12:08

Рейхсфюрер СС / Reichsfuhrer-SS


Год выпуска: 2015
Жанр: ужасы, триллер, драма, детектив, военный
Производство: США [Dapper Cat Pictures, Invasion Studios, Martini Pictures, Potent Media]
Режиссер: Дэвид Б. Стюарт III
В ролях: Дэвид Б. Стюарт III, Анджелина Ли, Чак Мехер, Джон Мартино, Тина Краузе, Тэмми Джин, Келли Уэстон
Сюжет фильма:
Генрих Гиммлер, рейхсфюрер СС, был самым преданным соратником Адольфа Гитлера и одним из самых страшных людей Второй мировой войны. Он убивал даже не поморщившись. Как то раз, рейхсфюреру становится физически плохо во время казни русских военопленных на Восточном фронте, в 1941-м году. Безжалостная карьеристская крыса, генерал Ганс Шелленберг, сдает Гиммлера. И Гитлер проверяет Генриха Гиммлера не верность, вынуждая совершить убийство польского заключенного по имени Данута, собственными руками. В результате, внутри Гиммлера пробуждаться монстр, который будет шокировать ни одно поколение. После того, как тот сводит счеты с жизнью в 1945-м году, он попадает в Ад. Вы сможете увидеть, что случится, когда Гиммлер встретит Эребуса, самого превратника ада! Посмотрите на кошмарные страдания, которые ожидают печально известного нацистского лидера, убившего миллионы!

  • Мировая премьера: 24 ноября 2015


Качество видео: DVDRip

Продолжительность: 01:34:54
Формат: AVI
Видео: XviD, 704x400 (16:9), 23.976 fps, 1860 kbps
Аудио: русский, любительский двухголосый закадровый, AC3 2.0, 48 kHz, 192 kbps

Код:

Формат                                   : AVI
Формат/Информация                        : Audio Video Interleave
Размер файла                             : 1,37 Гбайт
Продолжительность                        : 1 ч. 34 м.
Общий поток                              : 2062 Кбит/сек
Программа кодирования                    : VirtualDubMod 1.5.10.3 | www.virtualdub-fr.org || (build 2550/release)
Библиотека кодирования                   : VirtualDubMod build 2550/release

Видео
Идентификатор                            : 0
Формат                                   : MPEG-4 Visual
Профиль формата                          : Advanced Simple@L5
Параметр BVOP формата                    : 1
Параметр QPel формата                    : Нет
Параметр GMC формата                     : Без точки перехода
Параметр матрицы формата                 : Выборочная
Идентификатор кодека                     : XVID
Идентификатор кодека/Подсказка           : XviD
Продолжительность                        : 1 ч. 34 м.
Битрейт                                  : 1860 Кбит/сек
Ширина                                   : 704 пикселя
Высота                                   : 400 пикселей
Соотношение сторон                       : 16:9
Частота кадров                           : 23,976 (23976/1000) кадра/сек
Цветовое пространство                    : YUV
Субдискретизация насыщенности            : 4:2:0
Битовая глубина                          : 8 бит
Тип развёртки                            : Прогрессивная
Метод сжатия                             : С потерями
Бит/(Пиксели*Кадры)                      : 0.276
Размер потока                            : 1,23 Гбайт (90%)
Библиотека кодирования                   : XviD 73

Аудио
Идентификатор                            : 1
Формат                                   : AC-3
Формат/Информация                        : Audio Coding 3
Расширение режима                        : CM (complete main)
Параметр Endianness формата              : Big
Идентификатор кодека                     : 2000
Продолжительность                        : 1 ч. 34 м.
Вид битрейта                             : Постоянный
Битрейт                                  : 192 Кбит/сек
Каналы                                   : 2 канала
Расположение каналов                     : Front: L R
Частота                                  : 48,0 КГц
Частота кадров                           : 31,250 кадров/сек (1536 spf)
Метод сжатия                             : С потерями
Размер потока                            : 130 Мбайт (9%)
Выравнивание                             : Разделение по промежуткам
Продолжительность промежутка             : 42  мс. (1,00 видеокадр)
Время предзагрузки промежутка            : 500  мс.
Перевод: triumphant
Озвучивание: den904 & DeadSno
picpicpicpicpic
Для увеличения картинки щелкните мышкой по превью

Этот торрент недоступен для скачивания без регистрации, однако доступен по публичной magnet-ссылке (источники с публичных трекеров). Перед использованием ссылки прочтите, пожалуйста Пользовательское соглашение, а также как можно дольше оставайтесь на раздаче! Для того, чтобы скачать сам торрент-файл (который видит больше источников), а также для того, чтобы поблагодарить релизера, вам необходимо зарегистрироваться. Если регистрироваться лень - вы можете также попробовать скачать релиз по нашим партнерским ссылкам ниже.

[underverse.su].t65708.torrent
Трекер: Зарегистрирован   [ 01.05.2016 12:08 ]  

Статус: проверено (by Паукан at 01.05.2016 12:53)
Поблагодарили: пока никто не поблагодарил...
Тип торрента: публичный - доступные источники с открытых трекеров: 
Размер: 1,37 GB (занимает 0,31 DVDR, для записи нужно 1 болванка DVDR/RW)
 
 

Яндекс.Метрика powered by Sphinx


В Н И М А Н И Е
Сайт не распространяет и не хранит электронные версии произведений, а лишь бесплатно и без коммерческой выгоды (не требуя взамен платы,
SMS и т.д.) предоставляет доступ к создаваемому пользователями каталогу ссылок на торрент-файлы, которые содержат только списки хеш-сумм.
Убедительная просьба с жалобами обращаться напрямую к пользователю, разместившему торрент файл.

Вверх