Loading...
Error

Добро пожаловать в Каин / Badlands of Kain (Энди Палмер) [2016 г., ужасы, триллер, детектив, WEB-DLRip] MVO

Статистика раздачи
Размер:  1,45 GB   |    Зарегистрирован:  7 месяцев   |    Скачан:  11 раз
Сидов:  1  |  0 KB/s  ]   Личеров:  0  |  0 KB/s  ]

* - сиды/пиры с внешних источников

   
 
Автор Сообщение

makkol Пол:Муж

01-Май-2016 10:36

Добро пожаловать в Каин / Badlands of Kain


Год выпуска: 2016
Жанр: ужасы, триллер, детектив
Производство: США [Petri Entertainment]
Режиссер: Энди Палмер
В ролях: Рейчел Димария, Катрина Норма, Пол Сотер, Джордан Бэлфи, Джеймс Маршалл, Скотт Эванс, Кайли Уинг, Никки Томлинсон, Анна Лилли, Лин Малер
Сюжет фильма:
Шеннон и Крис отправились в дорожное путешествие через всю страну, чтобы собрать кусочки их испорченной дружбы. Но все это начинает рушится, когда их автомобиль ломается в городе Каин, штат Аризона.

Качество видео: WEB-DLRip

Продолжительность: 01:49:22
Формат: AVI
Видео: XviD, 720x304 (2.35:1), 23.976 fps, 1690 kbps
Аудио: русский, любительский многоголосый закадровый, AC3 2.0, 48 kHz, 192 kbps

Код:

Формат                                   : AVI
Формат/Информация                        : Audio Video Interleave
Размер файла                             : 1,45 Гбайт
Продолжительность                        : 1 ч. 49 м.
Общий поток                              : 1891 Кбит/сек
Программа кодирования                    : VirtualDubMod 1.5.10.2 (build 2540/release)
Библиотека кодирования                   : VirtualDubMod build 2540/release

Видео
Идентификатор                            : 0
Формат                                   : MPEG-4 Visual
Профиль формата                          : Advanced Simple@L5
Параметр BVOP формата                    : 2
Параметр QPel формата                    : Нет
Параметр GMC формата                     : Без точки перехода
Параметр матрицы формата                 : Выборочная
Идентификатор кодека                     : XVID
Идентификатор кодека/Подсказка           : XviD
Продолжительность                        : 1 ч. 49 м.
Битрейт                                  : 1690 Кбит/сек
Ширина                                   : 720 пикселей
Высота                                   : 304 пикселя
Соотношение сторон                       : 2,35:1
Частота кадров                           : 23,976 (24000/1001) кадра/сек
Цветовое пространство                    : YUV
Субдискретизация насыщенности            : 4:2:0
Битовая глубина                          : 8 бит
Тип развёртки                            : Прогрессивная
Метод сжатия                             : С потерями
Бит/(Пиксели*Кадры)                      : 0.322
Размер потока                            : 1,29 Гбайт (89%)
Библиотека кодирования                   : XviD 1.2.1 (UTC 2008-12-04)

Аудио
Идентификатор                            : 1
Формат                                   : AC-3
Формат/Информация                        : Audio Coding 3
Расширение режима                        : CM (complete main)
Параметр Endianness формата              : Big
Идентификатор кодека                     : 2000
Продолжительность                        : 1 ч. 49 м.
Вид битрейта                             : Постоянный
Битрейт                                  : 192 Кбит/сек
Каналы                                   : 2 канала
Расположение каналов                     : Front: L R
Частота                                  : 48,0 КГц
Частота кадров                           : 31,250 кадров/сек (1536 spf)
Метод сжатия                             : С потерями
Размер потока                            : 150 Мбайт (10%)
Выравнивание                             : Разделение по промежуткам
Продолжительность промежутка             : 42  мс. (1,00 видеокадр)
Время предзагрузки промежутка            : 500  мс.
Присутствует реклама


picpicpicpicpic
Для увеличения картинки щелкните мышкой по превью

Этот торрент недоступен для скачивания без регистрации, однако доступен по публичной magnet-ссылке (источники с публичных трекеров). Перед использованием ссылки прочтите, пожалуйста Пользовательское соглашение, а также как можно дольше оставайтесь на раздаче! Для того, чтобы скачать сам торрент-файл (который видит больше источников), а также для того, чтобы поблагодарить релизера, вам необходимо зарегистрироваться. Если регистрироваться лень - вы можете также попробовать скачать релиз по нашим партнерским ссылкам ниже.

[underverse.su].t65706.torrent
Трекер: Зарегистрирован   [ 01.05.2016 10:36 ]  

Статус: проверено (by makkol at 01.05.2016 11:47)
Поблагодарили: пока никто не поблагодарил...
Тип торрента: публичный - доступные источники с открытых трекеров: 
Размер: 1,45 GB (занимает 1/3 DVDR, для записи нужно 1 болванка DVDR/RW)
 
 
Похожие темы
Форум Тема Автор Торрент Отв. Посл. сооб.
Зарубежное кино [DVDRip, Low-Res HDRip, и т.д.] Добро пожаловать на Север / Benvenuti al nord (Люка Миньеро) [2012 г., комедия, DVDRip] nemos
0 | 0

2 | 1090

18

20.08.2012 16:43

Зарубежное кино [DVDRip, Low-Res HDRip, и т.д.] Добро пожаловать на борт / Bienvenue a bord (Эрик Лавэн) [2011 г., комедия, HDRip] 90ytr90
2 | 0

0 | 793

28

16.09.2012 09:02

Зарубежное кино [DVDRip, Low-Res HDRip, и т.д.] Добро пожаловать в капкан / Welcome to the Punch (Эрен Криви) [2013 г., боевик, триллер, криминал, приключения, WEB-DLRip] AVO [А. Дольский] RG NewCinema
4 | 1

0 | 3456

63

02.04.2013 11:09

Зарубежное кино [DVDRip, Low-Res HDRip, и т.д.] Добро пожаловать в мотель Бейтса / The Bates Haunting (Байрон Турк) [2012 г., ужасы, триллер, WEB-DLRip] DVO Чертёнок
1 | 0

0 | 883

13

14.08.2013 10:30

Зарубежное кино [DVDRip, Low-Res HDRip, и т.д.] Добро пожаловать в Лэйквью / Lakeview Terrace (Нил ЛаБут / Neil LaBute) [2008 г., триллер, драма, криминал, HDRip] Паукан
1 | 0

0 | 952

20

16.08.2013 14:33

Зарубежное кино [DVDRip, Low-Res HDRip, и т.д.] Добро пожаловать в капкан / Добро пожаловать в Панч / Welcome to the Punch (Эрен Криви / Eran Creevy) [2013 г., боевик, триллер, криминал, BDRip] AVO (А.Дольский) + Original 90ytr90
0 | 0

0 | 2292

30

11.10.2013 13:24

T Зарубежное кино [DVDRip, Low-Res HDRip, и т.д.] Добро пожаловать в Нью-Йорк / Welcome to New York (Абель Феррара) [2014 г., драма, WEB-DLRip] MVO Паукан
8 | 0

0 | 952

19

05.08.2014 09:45

Зарубежное кино [DVDRip, Low-Res HDRip, и т.д.] Добро пожаловать в Нью-Йорк / Welcome to New York (Абель Феррара / Abel Ferrara) [2014 г., драма, DVDRip] MVO 90ytr90
3 | 0

0 | 1029

26

22.08.2014 10:35

Зарубежное кино [DVDRip, Low-Res HDRip, и т.д.] Добро пожаловать в Нью-Йорк / Welcome to New York (Абель Феррара / Abel Ferrara) [2014 г., драма, DVDRip] MVO + Original (Eng) 90ytr90
0 | 0

0 | 1187

24

22.08.2014 10:41

Зарубежное кино [DVDRip, Low-Res HDRip, и т.д.] Добро пожаловать в Нью-Йорк / Welcome to New York (Абель Феррара) [2014 г., Драма, BDRip] MVO (RUS, Лицензия) + Original (ENG) Ведьмочка
1 | 0

1 | 856

5

13.10.2014 10:36


Яндекс.Метрика powered by Sphinx


В Н И М А Н И Е
Сайт не распространяет и не хранит электронные версии произведений, а лишь бесплатно и без коммерческой выгоды (не требуя взамен платы,
SMS и т.д.) предоставляет доступ к создаваемому пользователями каталогу ссылок на торрент-файлы, которые содержат только списки хеш-сумм.
Убедительная просьба с жалобами обращаться напрямую к пользователю, разместившему торрент файл.

Вверх