Loading...
Error

Сотня / The 100 / Сезон 1 (01-13 из 13) (Дин Уайт, Джон Беринг, Милан Чейлов) [2014 г., Фантастика, экранизация, WEB-DLRip-AVC] MVO (LostFilm) + MVO (AlexFilm) + MVO (NewStudio) + MVO (BaiBaKo) + Original + Subs

Статистика раздачи
Размер:  14,59 GB   |    Зарегистрирован:  7 месяцев   |    Скачан:  9 раз

Полного источника не было: 6 часов

Сидов:  0  |  0 KB/s  ]   Личеров:  0  |  0 KB/s  ]

* - сиды/пиры с внешних источников

   
 
Автор Сообщение

Dryn9 Пол:Муж

30-Апр-2016 17:06



Год выпуска: 2014
Жанр: Фантастика, экранизация
Страна: США
Режиссер: Дин Уайт, Джон Беринг, Милан Чейлов
В ролях: Элиза Тейлор, Мари Авгеропулос, Сачин Сахель, Линдси Морган, Женевьев Бюкнер, Ричард Хэрмон, Джарод Джозеф, Челси Рейст, Крис Браунинг, Джош Ссеттуба
Сюжет фильма:
Экранизация одноименного романа Касс Морган. После ядерной войны прошло 97 лет. Остатки человечества, укрывшиеся на космической станции «Ковчег», страдают от нехватки ресурсов, необходимых для дальнейшего выживания. Правительство исчерпало все меры, включая жесткое ограничение рождаемости, но ситуация продолжает ухудшаться. Остается единственный выход — попробовать вернуться на Землю. Чтобы узнать, пригодна ли для жизни покинутая давным-давно планета, правительство отправляет туда сотню молодых правонарушителей, в числе которых оказываются дети высокопоставленных чиновников и других известных на «Ковчеге» людей. Теперь судьба всего человечества зависит от этой группы «изгнанников»...

Качество видео: WEB-DLRip-AVC

Продолжительность: 00:42:00
Формат: MKV
Видео: MPEG-4 AVC, 1024х576, 1900 kbps
Аудио #1: русский, многоголосый закадровый [профессиональный, LostFilm], AC3 5.1, 384 kbps
Аудио #2: русский, многоголосый закадровый [профессиональный, AlexFilm], AC3 5.1, 384 kbps
Аудио #3: русский, многоголосый закадровый [профессиональный, NewStudio], AC3 5.1, 384 kbps
Аудио #4: русский, многоголосый закадровый [профессиональный, BaiBaKo], AC3 5.1, 384 kbps
Аудио #5: английский, оригинал, AC3 5.1, 384 kbps
Субтитры: Русские (Notabenoid), английские

Код:

General
Unique ID : 236771961072352858544887089494268559265 (0xB2209EF8AE0A75FEB3BF0038A69BBFA1)
Complete name : D:µTorrent загрузкиThe.100.S01.2014.WEB-DLRip.AVC.MediaClubThe.100.S01E01.2014.WEB-DLRip.AVC.MediaClub.mkv
Format : Matroska
Format version : Version 4 / Version 2
File size : 1.11 GiB
Duration : 41mn 25s
Overall bit rate : 3 824 Kbps
Movie name : release MediaClub - MINION
Encoded date : UTC 2014-04-27 14:54:15
Writing application : mkvmerge v6.8.0 ('Theme for Great Cities') 64bit built on Mar 2 2014 21:34:26
Writing library : libebml v1.3.0 + libmatroska v1.4.1

Video
ID : 1
Format : AVC
Format/Info : Advanced Video Codec
Format profile : High@L4.1
Format settings, CABAC : Yes
Format settings, ReFrames : 9 frames
Codec ID : V_MPEG4/ISO/AVC
Duration : 41mn 25s
Bit rate : 1 900 Kbps
Width : 1 024 pixels
Height : 576 pixels
Display aspect ratio : 16:9
Frame rate mode : Constant
Frame rate : 23.976 fps
Color space : YUV
Chroma subsampling : 4:2:0
Bit depth : 8 bits
Scan type : Progressive
Bits/(Pixel*Frame) : 0.134
Stream size : 541 MiB (48%)
Title : Сотня / 1 сезон / 1 серия - Пилот
Writing library : x264 core 138 r2358 9e941d1
Encoding settings : cabac=1 / ref=9 / deblock=1:-3:-3 / analyse=0x3:0x133 / me=umh / subme=10 / psy=1 / psy_rd=1.00:0.10 / mixed_ref=1 / me_range=32 / chroma_me=1 / trellis=2 / 8x8dct=1 / cqm=0 / deadzone=21,11 / fast_pskip=0 / chroma_qp_offset=-3 / threads=6 / lookahead_threads=1 / sliced_threads=0 / nr=0 / decimate=0 / interlaced=0 / bluray_compat=0 / constrained_intra=0 / bframes=10 / b_pyramid=2 / b_adapt=2 / b_bias=0 / direct=3 / weightb=1 / open_gop=0 / weightp=2 / keyint=240 / keyint_min=23 / scenecut=40 / intra_refresh=0 / rc=2pass / mbtree=0 / bitrate=1900 / ratetol=1.0 / qcomp=0.60 / qpmin=10 / qpmax=51 / qpstep=4 / cplxblur=20.0 / qblur=0.5 / ip_ratio=1.40 / pb_ratio=1.30 / aq=1:1.00
Language : English
Default : Yes
Forced : No

Audio #1
ID : 2
Format : AC-3
Format/Info : Audio Coding 3
Mode extension : CM (complete main)
Format settings, Endianness : Big
Codec ID : A_AC3
Duration : 41mn 25s
Bit rate mode : Constant
Bit rate : 384 Kbps
Channel(s) : 6 channels
Channel positions : Front: L C R, Side: L R, LFE
Sampling rate : 48.0 KHz
Bit depth : 16 bits
Compression mode : Lossy
Stream size : 114 MiB (10%)
Title : LostFilm
Language : Russian
Default : Yes
Forced : No

Audio #2
ID : 3
Format : AC-3
Format/Info : Audio Coding 3
Mode extension : CM (complete main)
Format settings, Endianness : Big
Codec ID : A_AC3
Duration : 41mn 25s
Bit rate mode : Constant
Bit rate : 384 Kbps
Channel(s) : 6 channels
Channel positions : Front: L C R, Side: L R, LFE
Sampling rate : 48.0 KHz
Bit depth : 16 bits
Compression mode : Lossy
Stream size : 114 MiB (10%)
Title : AlexFilm
Language : Russian
Default : No
Forced : No

Audio #3
ID : 4
Format : AC-3
Format/Info : Audio Coding 3
Mode extension : CM (complete main)
Format settings, Endianness : Big
Codec ID : A_AC3
Duration : 41mn 25s
Bit rate mode : Constant
Bit rate : 384 Kbps
Channel(s) : 6 channels
Channel positions : Front: L C R, Side: L R, LFE
Sampling rate : 48.0 KHz
Bit depth : 16 bits
Compression mode : Lossy
Stream size : 114 MiB (10%)
Title : NewStudio
Language : Russian
Default : No
Forced : No

Audio #4
ID : 5
Format : AC-3
Format/Info : Audio Coding 3
Mode extension : CM (complete main)
Format settings, Endianness : Big
Codec ID : A_AC3
Duration : 41mn 25s
Bit rate mode : Constant
Bit rate : 384 Kbps
Channel(s) : 6 channels
Channel positions : Front: L C R, Side: L R, LFE
Sampling rate : 48.0 KHz
Bit depth : 16 bits
Compression mode : Lossy
Stream size : 114 MiB (10%)
Title : BaibaKo
Language : Russian
Default : No
Forced : No

Audio #5
ID : 6
Format : AC-3
Format/Info : Audio Coding 3
Mode extension : CM (complete main)
Format settings, Endianness : Big
Codec ID : A_AC3
Duration : 41mn 25s
Bit rate mode : Constant
Bit rate : 384 Kbps
Channel(s) : 6 channels
Channel positions : Front: L C R, Side: L R, LFE
Sampling rate : 48.0 KHz
Bit depth : 16 bits
Compression mode : Lossy
Stream size : 114 MiB (10%)
Language : English
Default : No
Forced : No

Text #1
ID : 7
Format : UTF-8
Codec ID : S_TEXT/UTF8
Codec ID/Info : UTF-8 Plain Text
Title : Notabenoid
Language : Russian
Default : No
Forced : No

Text #2
ID : 8
Format : UTF-8
Codec ID : S_TEXT/UTF8
Codec ID/Info : UTF-8 Plain Text
Title : eng-sub
Language : English
Default : No
Forced : No

Menu
00:00:02.008 : :Chapter 01
00:00:36.015 : :Chapter 02
00:10:12.218 : :Chapter 03
00:16:06.124 : :Chapter 04
00:21:01.807 : :Chapter 05
00:28:37.009 : :Chapter 06
00:34:04.023 : :Chapter 07
picpicpic
Для увеличения картинки щелкните мышкой по превью

Этот торрент недоступен для скачивания без регистрации, однако доступен по публичной magnet-ссылке (источники с публичных трекеров). Перед использованием ссылки прочтите, пожалуйста Пользовательское соглашение, а также как можно дольше оставайтесь на раздаче! Для того, чтобы скачать сам торрент-файл (который видит больше источников), а также для того, чтобы поблагодарить релизера, вам необходимо зарегистрироваться. Если регистрироваться лень - вы можете также попробовать скачать релиз по нашим партнерским ссылкам ниже.

[underverse.su].t65688.torrent
Трекер: Зарегистрирован   [ 30.04.2016 17:06 ]  

Статус: проверено (by Dryn9 at 30.04.2016 17:11)
Поблагодарили: 1 человек
Тип торрента: публичный - доступные источники с открытых трекеров: 
Размер: 14,59 GB (занимает 3,33 DVDR, для записи нужно 4 болванки DVDR/RW)
 
 
Похожие темы
Форум Тема Автор Торрент Отв. Посл. сооб.
T Зарубежные сериалы Сотня / The 100 / Сезон 3 (01-13 из 16) (Дин Уайт, Джон Шоуолтер, П.Дж. Пеше, Эд Фрэйман, Стивен ДеПол) [2016 г., Фантастика, экранизация, HDTVRip] DVO (Sunshine Studio) Dryn9
1 | 1

0 | 8047

2

30.04.2016 13:50

T Зарубежные сериалы Сотня / The 100 / Сезон 3 (01-12 из 16) (Дин Уайт, Мэтт Барбер, Джон Беринг, Милан Чейлов) [2016 г., фантастика, драма, детектив, боевик, WEB-DLRip] MVO (AlexFilm) + MVO (LostFilm) + MVO (NewStudio)... Dryn9
0 | 9

0 | 1157

3

30.04.2016 13:57

T Зарубежные сериалы [BD / Remux / BDRip / WEB-DL / HDTV 1080/720р] Сотня / The 100 / Сезон 3 (01-13 из 16) (Дин Уайт, Джон Шоуолтер, П.Дж. Пеше, Эд Фрэйман, Стивен ДеПол) [2016 г., Фантастика, экранизация, HDTV 720р] DVO (Sunshine Studio) Dryn9
0 | 1

0 | 8000

1

30.04.2016 13:19

T Зарубежные сериалы [BD / Remux / BDRip / WEB-DL / HDTV 1080/720р] Сотня / The 100 / Сезон 3 (01-13 из 16) (Дин Уайт, Мэтт Барбер, Джон Беринг, Милан Чейлов) [2016 г., фантастика, драма, детектив, боевик, WEB-DL 720p] MVO (AlexFilm) + MVO (LostFilm) + Original + Subs Dryn9
0 | 0

0 | 1100

1

06.05.2016 07:59


Яндекс.Метрика powered by Sphinx


В Н И М А Н И Е
Сайт не распространяет и не хранит электронные версии произведений, а лишь бесплатно и без коммерческой выгоды (не требуя взамен платы,
SMS и т.д.) предоставляет доступ к создаваемому пользователями каталогу ссылок на торрент-файлы, которые содержат только списки хеш-сумм.
Убедительная просьба с жалобами обращаться напрямую к пользователю, разместившему торрент файл.

Вверх