Loading...
Error

Маргарита Назарова - Женщина в клетке [2016 г., документальный, биография, SatRip]

Статистика раздачи
Размер:  715 MB   |    Зарегистрирован:  7 месяцев   |    Скачан:  2 раза

Полного источника не было: 5 месяцев 17 дней

Сидов:  0  |  0 KB/s  ]   Личеров:  0  |  0 KB/s  ]

* - сиды/пиры с внешних источников

   
 
Автор Сообщение

ARI71 Пол:Муж

30-Апр-2016 13:03

Маргарита Назарова - Женщина в клетке


Год выпуска: 2016
Жанр: документальный, биография
Страна: Россия Первый канал
Режиссер: Сергей Кожевников
Сюжет фильма:
Маргарита Назарова – первая в мире укротительница тигров. Большинству зрителей она известна по главной роли в «Полосатом рейсе». На цирковой арене ею восхищались миллионы зрителей по всему миру.

Маргари́та Петро́вна Наза́рова (26 ноября 1926 — 25 октября 2005) — советская цирковая артистка и киноактриса, дрессировщица тигров, народная артистка РСФСР (1969)

Качество видео: SatRip

Продолжительность: 00:49:54
Формат: AVI
Видео: XviD, 704x448, ~1800 kbps
Аудио: русский, (оригинал), AC3 2.0, ~192.00 kbps

Код:

Общее
Полное имя : D:\Margarita.Nazarova-Zhenshina.v.Kletke.SATRip.[www.*другой трекер*].avi
Формат : AVI
Формат/Информация : Audio Video Interleave
Размер файла : 715 Мбайт
Продолжительность : 49 м.
Общий поток : 2002 Кбит/сек
Программа кодирования : VirtualDubMod 1.5.10.3 | www.virtualdub-fr.org || (build 2550/release)
Библиотека кодирования : VirtualDubMod build 2550/release

Видео
Идентификатор : 0
Формат : MPEG-4 Visual
Профиль формата : Advanced Simple@L5
Параметр BVOP формата : 2
Параметр QPel формата : Нет
Параметр GMC формата : Без точки перехода
Параметр матрицы формата : Default (H.263)
Идентификатор кодека : XVID
Идентификатор кодека/Подсказка : XviD
Продолжительность : 49 м.
Битрейт : 1800 Кбит/сек
Ширина : 704 пикселя
Высота : 448 пикселей
Соотношение сторон : 16:10
Частота кадров : 25,000 кадров/сек
Цветовое пространство : YUV
Субдискретизация насыщенности : 4:2:0
Битовая глубина : 8 бит
Тип развёртки : Прогрессивная
Метод сжатия : С потерями
Бит/(Пиксели*Кадры) : 0.228
Размер потока : 643 Мбайт (90%)
Библиотека кодирования : XviD 1.2.1 (UTC 2008-12-04)

Аудио
Идентификатор : 1
Формат : AC-3
Формат/Информация : Audio Coding 3
Расширение режима : CM (complete main)
Параметр Endianness формата : Big
Идентификатор кодека : 2000
Продолжительность : 49 м.
Вид битрейта : Постоянный
Битрейт : 192 Кбит/сек
Каналы : 2 канала
Расположение каналов : Front: L R
Частота : 48,0 КГц
Метод сжатия : С потерями
Размер потока : 68,5 Мбайт (10%)
Выравнивание : Разделение по промежуткам
Продолжительность промежутка : 40 мс. (1,00 видеокадр)
Время предзагрузки промежутка : 500 мс.
picpicpicpicpic
Для увеличения картинки щелкните мышкой по превью

Этот торрент недоступен для скачивания без регистрации, однако доступен по публичной magnet-ссылке (источники с публичных трекеров). Перед использованием ссылки прочтите, пожалуйста Пользовательское соглашение, а также как можно дольше оставайтесь на раздаче! Для того, чтобы скачать сам торрент-файл (который видит больше источников), а также для того, чтобы поблагодарить релизера, вам необходимо зарегистрироваться. Если регистрироваться лень - вы можете также попробовать скачать релиз по нашим партнерским ссылкам ниже.

[underverse.su].t65679.torrent
Трекер: Зарегистрирован   [ 30.04.2016 13:03 ]  

Статус: проверено (by makkol at 30.04.2016 13:06)
Поблагодарили: пока никто не поблагодарил...
Тип торрента: публичный - доступные источники с открытых трекеров: 
Размер: 715 MB (занимает 0,16 DVDR, для записи нужно 1 болванка DVDR/RW)
 
 
Похожие темы
Форум Тема Автор Торрент Отв. Посл. сооб.
Зарубежное кино [DVDRip, Low-Res HDRip, и т.д.] Маргарита / Marguerite (Ксавье Джанноли) [2015 г., драма, HDRip] MVO makkol
13 | 4

0 | 489

8

20.05.2016 23:26

Зарубежное кино [HDDVDRip / BDRip / WEB-DL / HDTV 1080/720р] Маргарита / Marguerite (Ксавье Джанноли) [2015 г., драма, BDRip 1080p] MVO + Original makkol
0 | 0

0 | 488

5

20.05.2016 23:31

Собрания сочинений Маргарита Южина - Собрание сочинений [78 книг] [2001-2014 г., художественная литература, иронический детектив, FB2] RUS Паукан
1 | 0

0 | 669

13

21.01.2015 14:12

Ремесла. Сделай сам Маргарита Максимова - Азбука вязания [2014 г., Рукоделие, хобби, PDF] RUS vvmalysh
16 | 0

0 | 460

6

07.08.2015 05:07


Яндекс.Метрика powered by Sphinx


В Н И М А Н И Е
Сайт не распространяет и не хранит электронные версии произведений, а лишь бесплатно и без коммерческой выгоды (не требуя взамен платы,
SMS и т.д.) предоставляет доступ к создаваемому пользователями каталогу ссылок на торрент-файлы, которые содержат только списки хеш-сумм.
Убедительная просьба с жалобами обращаться напрямую к пользователю, разместившему торрент файл.

Вверх