Loading...
Error

Национальные парки Америки. Йосемити / America's National Parks. Yosemite [2015 г., документальный, природа, фауна, флора, HDTVRip] Dub

Статистика раздачи
Размер:  630 MB   |    Зарегистрирован:  7 месяцев   |    Скачан:  3 раза

Полного источника не было: 4 месяца 4 дня

Сидов:  0  |  0 KB/s  ]   Личеров:  0  |  0 KB/s  ]

* - сиды/пиры с внешних источников

   
 
Автор Сообщение

ARI71 Пол:Муж

29-Апр-2016 16:15

Национальные парки Америки. Йосемити / America's National Parks. Yosemite


Год выпуска: 2015
Жанр: документальный, природа, фауна, флора
Страна: США National Geographic
Режиссер: Оливер Гётцль
Сюжет фильма:
Это место знаменито своими неприступными скалами, множеством захватывающих дух водопадов и несравненной Йосемитской долиной. "Йосемити" - место крайностей, от отвесных скал до гигантских деревьев секвойи. Несмотря на это есть животные, для которых это место стало домом. Это один из самых легкодоступных и посещаемых парков. Но он всё равно полон тайн, неуловимых существ и непоседливых детёнышей. Здесь наземные животные умеют взлетать, держат в страхе самых маленьких, вступают в схватки друг с другом и воспитывают ненасытное потомство. Парк полон удивительных созданий и даёт приют одним из самых крупных и древних представителей живой природы. И всё это в неподвластной времени каменной обители - национальном парке Америки Йосемити.
Качество видео: HDTVRip

Продолжительность: 00:43:58
Формат: AVI
Видео: XviD, 720x400, ~1800 kbps
Аудио: русский, (дублированный), AC3 2.0, ~192.00 kbps

Код:

Общее
Полное имя : D:\NG America's National Parks Yosemite 2015.HDTVRip.by RockeT [Virtus & KazTorrentS].avi
Формат : AVI
Формат/Информация : Audio Video Interleave
Размер файла : 630 Мбайт
Продолжительность : 43 м.
Общий поток : 2001 Кбит/сек
Программа кодирования : VirtualDubMod 1.5.10.3 | www.virtualdub-fr.org || (build 2550/release)
Библиотека кодирования : VirtualDubMod build 2550/release

Видео
Идентификатор : 0
Формат : MPEG-4 Visual
Профиль формата : Advanced Simple@L5
Параметр BVOP формата : 1
Параметр QPel формата : Нет
Параметр GMC формата : Без точки перехода
Параметр матрицы формата : Default (MPEG)
Идентификатор кодека : XVID
Идентификатор кодека/Подсказка : XviD
Продолжительность : 43 м.
Битрейт : 1800 Кбит/сек
Ширина : 720 пикселей
Высота : 400 пикселей
Соотношение сторон : 16:9
Частота кадров : 25,000 кадров/сек
Цветовое пространство : YUV
Субдискретизация насыщенности : 4:2:0
Битовая глубина : 8 бит
Тип развёртки : Прогрессивная
Метод сжатия : С потерями
Бит/(Пиксели*Кадры) : 0.250
Размер потока : 566 Мбайт (90%)
Библиотека кодирования : XviD 1.2.1 (UTC 2008-12-04)

Аудио
Идентификатор : 1
Формат : AC-3
Формат/Информация : Audio Coding 3
Расширение режима : CM (complete main)
Параметр Endianness формата : Big
Идентификатор кодека : 2000
Продолжительность : 43 м.
Вид битрейта : Постоянный
Битрейт : 192 Кбит/сек
Каналы : 2 канала
Расположение каналов : Front: L R
Частота : 48,0 КГц
Метод сжатия : С потерями
Размер потока : 60,4 Мбайт (10%)
Выравнивание : Разделение по промежуткам
Продолжительность промежутка : 40 мс. (1,00 видеокадр)
Время предзагрузки промежутка : 500 мс.
picpicpicpicpic
Для увеличения картинки щелкните мышкой по превью

Этот торрент недоступен для скачивания без регистрации, однако доступен по публичной magnet-ссылке (источники с публичных трекеров). Перед использованием ссылки прочтите, пожалуйста Пользовательское соглашение, а также как можно дольше оставайтесь на раздаче! Для того, чтобы скачать сам торрент-файл (который видит больше источников), а также для того, чтобы поблагодарить релизера, вам необходимо зарегистрироваться. Если регистрироваться лень - вы можете также попробовать скачать релиз по нашим партнерским ссылкам ниже.

[underverse.su].t65646.torrent
Трекер: Зарегистрирован   [ 29.04.2016 16:15 ]  

Статус: проверено (by makkol at 29.04.2016 22:10)
Поблагодарили: пока никто не поблагодарил...
Тип торрента: публичный - доступные источники с открытых трекеров: 
Размер: 630 MB (занимает 0,14 DVDR, для записи нужно 1 болванка DVDR/RW)
 
 
Похожие темы
Форум Тема Автор Торрент Отв. Посл. сооб.
National Geographic Национальные парки Америки. Большой каньон / America's National Parks. Grand Canyon [2015 г., документальный, природа, фауна, флора, HDTVRip-AVC] Dub ARI71
2 | 0

0 | 626

5

19.03.2016 16:30

National Geographic Национальные парки Америки. Йеллоустоун / America's National Parks. Yellowstone [2015 г., документальный, природа, флора, фауна, HDTVRip-AVC] Dub ARI71
8 | 3

0 | 827

17

26.03.2016 16:13

National Geographic Национальные парки Америки. Олимпик / America's National Parks. Olympic [2015 г., документальный, природа, фауна, флора, HDTVRip 720p] Dub ARI71
5 | 0

0 | 989

6

28.03.2016 10:42

National Geographic Национальные парки Америки. Эверглейдс / America's National Parks. Everglades [2015 г., документальный, природа, флора, фауна, HDTVRip 720p] Dub ARI71
1 | 0

0 | 681

7

30.03.2016 15:24

National Geographic Национальные парки Америки. Большой каньон / America's National Parks. Grand Canyon [2015 г., документальный, природа, флора, фауна, HDTVRip] Dub ARI71
2 | 4

0 | 714

12

30.03.2016 16:10

National Geographic Национальные парки Америки. Олимпик / America's National Parks. Olympic [2015 г., документальный, природа, флора, фауна, HDTVRip-AVC] Dub ARI71
6 | 0

0 | 602

10

02.04.2016 11:26

National Geographic Национальные парки Америки. Йеллоустоун / America's National Parks. Yellowstone [2015 г., документальный, природа, флора, фауна, HDTVRip] Dub ARI71
4 | 0

0 | 468

1

06.04.2016 17:01

National Geographic Национальные парки Америки. Грейт-Смоки-Маунтинс / America's National Parks. Great Smoky Mountain [2015 г., документальный, природа, флора, фауна, HDTVRip 720p] Dub ARI71
1 | 2

0 | 837

2

09.04.2016 14:31

National Geographic Национальные парки Америки. Олимпик / America's National Parks. Olympic [2015 г., документальный, природа, фауна, флора, HDTVRip] Dub ARI71
4 | 1

0 | 814

1

09.04.2016 14:59

National Geographic Национальные парки Америки. Эверглейдс / America's National Parks. Everglades [2015 г., документальный, природа, фауна, флора, HDTVRip] Dub ARI71
3 | 3

0 | 610

7

12.04.2016 10:09


Яндекс.Метрика powered by Sphinx


В Н И М А Н И Е
Сайт не распространяет и не хранит электронные версии произведений, а лишь бесплатно и без коммерческой выгоды (не требуя взамен платы,
SMS и т.д.) предоставляет доступ к создаваемому пользователями каталогу ссылок на торрент-файлы, которые содержат только списки хеш-сумм.
Убедительная просьба с жалобами обращаться напрямую к пользователю, разместившему торрент файл.

Вверх