Loading...
Error

Мастерская (1-4 выпуск) [2016 г., документальный, познавательный, рыбалка, WEBRip]

Статистика раздачи
Размер:  1,17 GB   |    Зарегистрирован:  7 месяцев   |    Скачан:  1 раз

Полного источника не было: 1 месяц 15 дней

Сидов:  0  |  0 KB/s  ]   Личеров:  0  |  0 KB/s  ]

* - сиды/пиры с внешних источников

   
 
Автор Сообщение

ARI71 Пол:Муж

29-Апр-2016 15:47

Мастерская (1-4 выпуск)


Год выпуска: 2016
Жанр: документальный, познавательный, рыбалка
Страна: Украина ТК "Трофей", ООО "Трофей клуб охотников и рыболовов"
Режиссер: Максим Сальник
В ролях: Дмитрий Борсук
Сюжет фильма:
Цикл передач "Мастерская" посвящена поплавочной ловле, а именно аксессуарам для подготовки снастей к рыболовной сессии.
Качество видео: WEBRip

Продолжительность: 4 х ~ 00:24:00
Формат: AVI
Видео: XviD, 720x480, ~1623 kbps
Аудио: русский, (оригинал), MP3 2.0, ~256.00 kbps
(тех. данные всех выпусков идентичны)
Выпуск 01 - Дмитрий Борсук расскажет о том как вязать поводки. Рассмотрим виды поплавков и то на что необходимо обратить внимание при выборе данного элемента снастей

Выпуск 02 - Классический универсальный монтаж для ловли как на течении так и в стоячей воде, нюансы изготовления и огрузки

Выпуск 03 - Мотовила и монтаж для дискового поплавка, где и когда и как их правильно использовать, монтаж оснастки, правильная огрузка

Выпуск 04 - Оснастка для ловли уклейки и ловли в пол воды

Код:

Общее
Полное имя : D:\Мастерская\03. Мастерская. Мотовила и монтаж для дискового поплавка.avi
Формат : AVI
Формат/Информация : Audio Video Interleave
Размер файла : 325 Мбайт
Продолжительность : 24 м.
Общий поток : 1892 Кбит/сек
Программа кодирования : Lavf56.25.101

Видео
Идентификатор : 0
Формат : xvid
Идентификатор кодека : xvid
Продолжительность : 24 м.
Битрейт : 1623 Кбит/сек
Ширина : 720 пикселей
Высота : 480 пикселей
Соотношение сторон : 3:2
Частота кадров : 25,000 кадров/сек
Бит/(Пиксели*Кадры) : 0.188
Размер потока : 279 Мбайт (86%)

Аудио
Идентификатор : 1
Формат : MPEG Audio
Версия формата : Version 1
Профиль формата : Layer 3
Режим : Joint stereo
Расширение режима : MS Stereo
Идентификатор кодека : 55
Идентификатор кодека/Подсказка : MP3
Продолжительность : 24 м.
Вид битрейта : Постоянный
Битрейт : 256 Кбит/сек
Каналы : 2 канала
Частота : 44,1 КГц
Метод сжатия : С потерями
Размер потока : 43,9 Мбайт (14%)
Выравнивание : Соединение по промежуткам
Продолжительность промежутка : 26 мс. (0,65 видеокадр)
Время предзагрузки промежутка : 26 мс.
Библиотека кодирования : LAME3.99.5
Релиз группы:

picpicpicpicpic
Для увеличения картинки щелкните мышкой по превью

Этот торрент недоступен для скачивания без регистрации, однако доступен по публичной magnet-ссылке (источники с публичных трекеров). Перед использованием ссылки прочтите, пожалуйста Пользовательское соглашение, а также как можно дольше оставайтесь на раздаче! Для того, чтобы скачать сам торрент-файл (который видит больше источников), а также для того, чтобы поблагодарить релизера, вам необходимо зарегистрироваться. Если регистрироваться лень - вы можете также попробовать скачать релиз по нашим партнерским ссылкам ниже.

[underverse.su].t65644.torrent
Трекер: Зарегистрирован   [ 29.04.2016 15:47 ]  

Статус: проверено (by makkol at 29.04.2016 22:13)
Поблагодарили: пока никто не поблагодарил...
Тип торрента: публичный - доступные источники с открытых трекеров: 
Размер: 1,17 GB (занимает 0,27 DVDR, для записи нужно 1 болванка DVDR/RW)
 
 
Похожие темы
Форум Тема Автор Торрент Отв. Посл. сооб.
Ремесла. Сделай сам Мастерская на дому №1 [2015 г., Домоводство, PDF] RUS vvmalysh
8 | 0

0 | 384

13

12.12.2015 03:11

Ремесла. Сделай сам Мастерская на дому №2 [2015 г., Домоводство, PDF] RUS vvmalysh
14 | 0

0 | 381

15

12.12.2015 03:12


Яндекс.Метрика powered by Sphinx


В Н И М А Н И Е
Сайт не распространяет и не хранит электронные версии произведений, а лишь бесплатно и без коммерческой выгоды (не требуя взамен платы,
SMS и т.д.) предоставляет доступ к создаваемому пользователями каталогу ссылок на торрент-файлы, которые содержат только списки хеш-сумм.
Убедительная просьба с жалобами обращаться напрямую к пользователю, разместившему торрент файл.

Вверх