Loading...
Error

Ты взойди, солнце красное [1981 г., документальный, биография, DVDRip]

Статистика раздачи
Размер:  616 MB   |    Зарегистрирован:  7 месяцев   |    Скачан:  1 раз

Полного источника не было: 7 месяцев

Сидов:  0  |  0 KB/s  ]   Личеров:  0  |  0 KB/s  ]

* - сиды/пиры с внешних источников

   
 
Автор Сообщение

ARI71 Пол:Муж

29-Апр-2016 15:06

Ты взойди, солнце красное


Год выпуска: 1981
Жанр: документальный, биография
Страна: СССР Горьковское ТВ
Режиссер: Юрий Беспалов
Текст читает: Леонид Кулагин
Сюжет фильма:
Фильм-летопись жизни и творчества Ф.И. Шаляпина с 1896 по 1910 годы, хотя, сам рассказ начинается со дня смерти лучшего его друга - Максима Горького (умер 18 июня 1936). В ленте задействовано очень много фотографий, некоторые из них даже - кадр за кадром и порой кажется, что великий царь-бас движется. Так же - немало старых афиш, газет и фонограммы, а рассказчик так интересно повествует, что эти 47 минут пролетают как одна.

Фёдор Ива́нович Шаля́пин (1 [13] февраля 1873, Казань — 12 апреля 1938, Париж) — русский оперный и камерный певец (высокий бас), в разное время солист Большого и Мариинского театров, а также театра Метрополитен Опера, первый народный артист Республики (1918—1927, звание возвращено в 1991), в 1918—1921 годах — художественный руководитель Мариинского театра. Занимался также живописью, графикой и скульптурой, снимался в кино. Оказал большое влияние на мировое оперное искусство.

Качество видео: DVDRip

Продолжительность: 00:47:04
Формат: AVI
Видео: XviD, 640x488, ~1500 kbps
Аудио: русский, (оригинал), MP3 2.0, ~320.00 kbps

Код:

Общее
Полное имя : D:\Ti_vzojdi_solnce_krasnoe_1981_DVDRip.avi
Формат : AVI
Формат/Информация : Audio Video Interleave
Размер файла : 616 Мбайт
Продолжительность : 47 м.
Общий поток : 1829 Кбит/сек
Программа кодирования : VirtualDubMod 1.5.10.3 | www.virtualdub-fr.org || (build 2550/release)
Библиотека кодирования : VirtualDubMod build 2550/release

Видео
Идентификатор : 0
Формат : MPEG-4 Visual
Профиль формата : Advanced Simple@L5
Параметр BVOP формата : 3
Параметр QPel формата : Нет
Параметр GMC формата : Без точки перехода
Параметр матрицы формата : Default (H.263)
Идентификатор кодека : XVID
Идентификатор кодека/Подсказка : XviD
Продолжительность : 47 м.
Битрейт : 1500 Кбит/сек
Ширина : 640 пикселей
Высота : 488 пикселей
Соотношение сторон : 4:3
Частота кадров : 25,000 кадров/сек
Цветовое пространство : YUV
Субдискретизация насыщенности : 4:2:0
Битовая глубина : 8 бит
Тип развёртки : Прогрессивная
Метод сжатия : С потерями
Бит/(Пиксели*Кадры) : 0.192
Размер потока : 505 Мбайт (82%)
Библиотека кодирования : XviD 1.2.1 (UTC 2008-12-04)

Аудио
Идентификатор : 1
Формат : MPEG Audio
Версия формата : Version 1
Профиль формата : Layer 3
Идентификатор кодека : 55
Идентификатор кодека/Подсказка : MP3
Продолжительность : 47 м.
Вид битрейта : Постоянный
Битрейт : 320 Кбит/сек
Каналы : 2 канала
Частота : 44,1 КГц
Метод сжатия : С потерями
Размер потока : 108 Мбайт (17%)
Выравнивание : Разделение по промежуткам
Продолжительность промежутка : 40 мс. (1,00 видеокадр)
Время предзагрузки промежутка : 500 мс.
Библиотека кодирования : LAME3.99r
Настройки программы : -m s -V 4 -q 0 -lowpass 20.5
Релиз группы:

picpicpicpicpic
Для увеличения картинки щелкните мышкой по превью

Этот торрент недоступен для скачивания без регистрации, однако доступен по публичной magnet-ссылке (источники с публичных трекеров). Перед использованием ссылки прочтите, пожалуйста Пользовательское соглашение, а также как можно дольше оставайтесь на раздаче! Для того, чтобы скачать сам торрент-файл (который видит больше источников), а также для того, чтобы поблагодарить релизера, вам необходимо зарегистрироваться. Если регистрироваться лень - вы можете также попробовать скачать релиз по нашим партнерским ссылкам ниже.

[underverse.su].t65641.torrent
Трекер: Зарегистрирован   [ 29.04.2016 15:06 ]  

Статус: проверено (by 90ytr90 at 29.04.2016 16:22)
Поблагодарили: пока никто не поблагодарил...
Тип торрента: публичный - доступные источники с открытых трекеров: 
Размер: 616 MB (занимает 0,14 DVDR, для записи нужно 1 болванка DVDR/RW)
 
 

Яндекс.Метрика powered by Sphinx


В Н И М А Н И Е
Сайт не распространяет и не хранит электронные версии произведений, а лишь бесплатно и без коммерческой выгоды (не требуя взамен платы,
SMS и т.д.) предоставляет доступ к создаваемому пользователями каталогу ссылок на торрент-файлы, которые содержат только списки хеш-сумм.
Убедительная просьба с жалобами обращаться напрямую к пользователю, разместившему торрент файл.

Вверх