Loading...
Error

Легенды завтрашнего дня / DC's Legends of Tomorrow (сезон 1, серии 1-12 из 18) (Дермотт Даунс, Глен Винтер, Джо Данте) [2016 г., фантастика, боевик, HDTVRip 720p] MVO (NewStudio)

Статистика раздачи
Размер:  6,31 GB   |    Зарегистрирован:  7 месяцев   |    Скачан:  0 раз

Полного источника не было: 6 месяцев

Сидов:  0  |  0 KB/s  ]   Личеров:  0  |  0 KB/s  ]

* - сиды/пиры с внешних источников

   
 
Автор Сообщение

Alump Пол:Муж

29-Апр-2016 10:46

Легенды завтрашнего дня / DC's Legends of Tomorrow (сезон 1)


Год выпуска: 2016
Жанр: фантастика, боевик
Страна: США
Режиссер: Дермотт Даунс, Глен Винтер, Джо Данте
В ролях: Виктор Гарбер, Брэндон Рут, Кейти Лотц, Артур Дарвилл, Сиара Рене, Франц Драмех, Доминик Пёрселл, Вентворт Миллер, Каспер Крамп, Фальк Хеншел и др.
Сюжет фильма:
Увидев будущее, которого обязательно нужно избежать, Рип Хантер, путешественник во времени, собирает команду из героев и злодеев, чтобы противостоять смертельной угрозе. На кону стоит не только наша планета, но и все время в целом. Сможет ли эта команда победить бессмертное зло, абсолютно непохожее на то, что они видели раньше?

Качество видео: HDTVRip 720p

Продолжительность: ~00:42:00 серия
Формат: AVI
Видео: XviD, 720x400 (16:9), ~1432 kbps
Аудио: русский, многоголосый закадровый [профессиональный, NewStudio], MP3 2.0, 128 kbps

Код:

Общее
Полное имя : D:\Легенды завтрашнего дня (сезон 1) DC's Legends of Tomorrow (2016) WEB-DLRip - NewStudio\DC's.Legends.of.Tomorrow.S01E01.WEBDLRip.Rus.Eng.DV.NewStudio.avi
Формат : AVI
Формат/Информация : Audio Video Interleave
Размер файла : 541 Мбайт
Продолжительность : 44 м.
Общий поток : 1702 Кбит/сек
Программа кодирования : VirtualDubModRus 1.5.10.2 (build 2542/release)
Библиотека кодирования : VirtualDubMod build 2542/release

Видео
Идентификатор : 0
Формат : MPEG-4 Visual
Профиль формата : Advanced Simple@L5
Параметр BVOP формата : 2
Параметр QPel формата : Нет
Параметр GMC формата : Без точки перехода
Параметр матрицы формата : Default (MPEG)
Идентификатор кодека : XVID
Идентификатор кодека/Подсказка : XviD
Продолжительность : 44 м.
Битрейт : 1432 Кбит/сек
Ширина : 720 пикселей
Высота : 400 пикселей
Соотношение сторон : 16:9
Частота кадров : 23,976 (23976/1000) кадра/сек
Цветовое пространство : YUV
Субдискретизация насыщенности : 4:2:0
Битовая глубина : 8 бит
Тип развёртки : Прогрессивная
Метод сжатия : С потерями
Бит/(Пиксели*Кадры) : 0.207
Размер потока : 456 Мбайт (84%)
Библиотека кодирования : XviD 73

Аудио #1
Идентификатор : 1
Формат : MPEG Audio
Версия формата : Version 1
Профиль формата : Layer 3
Режим : Joint stereo
Расширение режима : MS Stereo
Идентификатор кодека : 55
Идентификатор кодека/Подсказка : MP3
Продолжительность : 44 м.
Вид битрейта : Постоянный
Битрейт : 128 Кбит/сек
Каналы : 2 канала
Частота : 48,0 КГц
Метод сжатия : С потерями
Размер потока : 40,7 Мбайт (8%)
Выравнивание : Соединение по промежуткам
Продолжительность промежутка : 42 мс. (1,00 видеокадр)
Время предзагрузки промежутка : 504 мс.

Аудио #2
Идентификатор : 2
Формат : MPEG Audio
Версия формата : Version 1
Профиль формата : Layer 3
Режим : Joint stereo
Расширение режима : MS Stereo
Идентификатор кодека : 55
Идентификатор кодека/Подсказка : MP3
Продолжительность : 44 м.
Вид битрейта : Постоянный
Битрейт : 128 Кбит/сек
Каналы : 2 канала
Частота : 48,0 КГц
Метод сжатия : С потерями
Размер потока : 40,7 Мбайт (8%)
Выравнивание : Соединение по промежуткам
Продолжительность промежутка : 42 мс. (1,00 видеокадр)
Время предзагрузки промежутка : 504 мс.
Библиотека кодирования : LAME3.99.5ЄЄЄЄЄЄЄЄЄЄ
Релиз группы:

picpicpic
Для увеличения картинки щелкните мышкой по превью

Этот торрент недоступен для скачивания без регистрации, однако доступен по публичной magnet-ссылке (источники с публичных трекеров). Перед использованием ссылки прочтите, пожалуйста Пользовательское соглашение, а также как можно дольше оставайтесь на раздаче! Для того, чтобы скачать сам торрент-файл (который видит больше источников), а также для того, чтобы поблагодарить релизера, вам необходимо зарегистрироваться. Если регистрироваться лень - вы можете также попробовать скачать релиз по нашим партнерским ссылкам ниже.

[underverse.su].t65630.torrent
Трекер: Зарегистрирован   [ 29.04.2016 18:14 ]  

Статус: % на проверке (by makkol at 29.04.2016 21:48)
Поблагодарили: пока никто не поблагодарил...
Тип торрента: публичный - доступные источники с открытых трекеров: 
Размер: 6,31 GB (занимает 1,44 DVDR, для записи нужно 2 болванки DVDR/RW)
 
 


Последний раз редактировалось: Alump (29.04.2016 18:13), всего редактировалось 4 раз(а)

Alump Пол:Муж

29-Апр-2016 11:22

Буду обновлять

makkol Пол:Муж

29-Апр-2016 11:34

Приватные торренты у нас запрещены, замените. Для создания публичного, здесь http://underverse.me/viewtopic.php?t=10 , пункт 2, нужно снять галочку с Частный торрент.

"Обновляемый" в шапке (и в заголовке) писать не нужно, лучше укажите какой сезон, сколько серий.

Alump Пол:Муж

29-Апр-2016 18:15

makkol писал(а):

Приватные торренты у нас запрещены, замените. Для создания публичного, здесь http://underverse.me/viewtopic.php?t=10 , пункт 2, нужно снять галочку с Частный торрент.

"Обновляемый" в шапке (и в заголовке) писать не нужно, лучше укажите какой сезон, сколько серий.
исправил

makkol Пол:Муж

29-Апр-2016 21:47

Спасибо. Только увы, это не всё.
Скриншоты должны быть именно скриншотами с раздаваемого фильма (чтобы желающие могли оценить качество), а не фотки с кинопоиска, туда любой желающий и так может сходить по имеющейся ссылке.
Количество аудиодорожек, судя по медиаинфо, две, а у Вас указана только одна.
Качество видео тут, по названию файлов видно, WEB-DLRip а не HDTVRip, и тем более не 720p (тут простое SD).
И ещё. Раз раздача обновляемая, для удобства пользователей желательно добавить информацию о том, как скачивать новые серии. Можно например отсюда http://underverse.me/viewtopic.php?t=57317 скопировать к себе спойлер ''Обновление раздачи''.


Последний раз редактировалось: makkol (29.04.2016 21:53), всего редактировалось 1 раз

29-Апр-2016 21:52

Топик был перенесен из форума Зарубежные сериалы [BD / Remux / BDRip / WEB-DL / HDTV 1080/720р] в форум Зарубежные сериалы


makkol
 

Яндекс.Метрика powered by Sphinx


В Н И М А Н И Е
Сайт не распространяет и не хранит электронные версии произведений, а лишь бесплатно и без коммерческой выгоды (не требуя взамен платы,
SMS и т.д.) предоставляет доступ к создаваемому пользователями каталогу ссылок на торрент-файлы, которые содержат только списки хеш-сумм.
Убедительная просьба с жалобами обращаться напрямую к пользователю, разместившему торрент файл.

Вверх