Loading...
Error

Жить не по лжи. Всеми правдами и неправдами [2016 г., документальный, биография, SatRip]

Статистика раздачи
Размер:  1,02 GB   |    Зарегистрирован:  11 месяцев   |    Скачан:  2 раза

Полного источника не было: 10 месяцев

Сидов:  0  |  0 KB/s  ]   Личеров:  0  |  0 KB/s  ]

* - сиды/пиры с внешних источников

   
 
Автор Сообщение

ARI71 Пол:Муж

26-Апр-2016 11:20

Жить не по лжи. Всеми правдами и неправдами


Год выпуска: 2016
Жанр: документальный, биография
Страна: Россия ООО "НЕТ - ФИЛЬМ"
Режиссер: Александр Андреев
Сюжет фильма:
Фильм построен на рассекреченных архивных документах, на воспоминаниях одноклассников и сослуживцев А.И. Солженицына. Так ли все правдиво в официальной биографии создателя «Архипелаг ГУЛАГ»?

Алекса́ндр Иса́евич (Исаакиевич) Солжени́цын (11 декабря 1918, Кисловодск — 3 августа 2008, Москва) — русский писатель, драматург, публицист, поэт, общественный и политический деятель, живший и работавший в СССР, Швейцарии, США и России. Лауреат Нобелевской премии по литературе (1970). Диссидент, в течение нескольких десятилетий (1960—1980-е годы) активно выступавший против коммунистических идей, политического строя СССР и политики его властей.

Качество видео: SatRip

Продолжительность: 01:19:37
Формат: AVI
Видео: XviD, 704x384, ~1700 kbps
Аудио: русский, (оригинал), MP3 2.0, ~128.00 kbps

Код:

Общее
Полное имя : D:\ZHit_ ne po lzhi.avi
Формат : AVI
Формат/Информация : Audio Video Interleave
Размер файла : 1,02 Гбайт
Продолжительность : 1 ч. 19 м.
Общий поток : 1838 Кбит/сек
Программа кодирования : VirtualDubMod 1.5.10.3 | www.virtualdub-fr.org || (build 2550/release)
Библиотека кодирования : VirtualDubMod build 2550/release

Видео
Идентификатор : 0
Формат : MPEG-4 Visual
Профиль формата : Simple@L1
Параметр BVOP формата : Нет
Параметр QPel формата : Нет
Параметр GMC формата : Без точки перехода
Параметр матрицы формата : Default (H.263)
Идентификатор кодека : XVID
Идентификатор кодека/Подсказка : XviD
Продолжительность : 1 ч. 19 м.
Битрейт : 1700 Кбит/сек
Ширина : 704 пикселя
Высота : 384 пикселя
Соотношение сторон : 1,85:1
Частота кадров : 25,000 кадров/сек
Цветовое пространство : YUV
Субдискретизация насыщенности : 4:2:0
Битовая глубина : 8 бит
Тип развёртки : Прогрессивная
Метод сжатия : С потерями
Бит/(Пиксели*Кадры) : 0.252
Размер потока : 968 Мбайт (93%)
Библиотека кодирования : Lavc53.33.0

Аудио
Идентификатор : 1
Формат : MPEG Audio
Версия формата : Version 1
Профиль формата : Layer 3
Идентификатор кодека : 55
Идентификатор кодека/Подсказка : MP3
Продолжительность : 1 ч. 19 м.
Вид битрейта : Постоянный
Битрейт : 128 Кбит/сек
Каналы : 2 канала
Частота : 48,0 КГц
Метод сжатия : С потерями
Размер потока : 72,9 Мбайт (7%)
Выравнивание : Соединение по промежуткам
Продолжительность промежутка : 40 мс. (1,00 видеокадр)
Время предзагрузки промежутка : 504 мс.
Библиотека кодирования : LAME3.99r
Настройки программы : -m s -V 4 -q 2 -lowpass 17 -b 128
Релиз группы:

picpicpicpicpic
Для увеличения картинки щелкните мышкой по превью

Этот торрент недоступен для скачивания без регистрации, однако доступен по публичной magnet-ссылке (источники с публичных трекеров). Перед использованием ссылки прочтите, пожалуйста Пользовательское соглашение, а также как можно дольше оставайтесь на раздаче! Для того, чтобы скачать сам торрент-файл (который видит больше источников), а также для того, чтобы поблагодарить релизера, вам необходимо зарегистрироваться. Если регистрироваться лень - вы можете также попробовать скачать релиз по нашим партнерским ссылкам ниже.

[underverse.su].t65509.torrent
Трекер: Зарегистрирован   [ 26.04.2016 11:20 ]  

Статус: проверено (by makkol at 26.04.2016 11:26)
Поблагодарили: пока никто не поблагодарил...
Тип торрента: публичный - доступные источники с открытых трекеров: 
Размер: 1,02 GB (занимает 0,23 DVDR, для записи нужно 1 болванка DVDR/RW)
 
 

матроскин Пол:Муж

08-Май-2016 14:16

Когда же мир избавится - от сволочей???
Спасибо авторам и участникам фильма. Сколько людей пострадало от Солженицына. И сколько оглупело от его мифов! Страшно, что его лживые книги обязали изучать в школах.

Предатель и иуда.......Такие как он были всегда: Николай 2, Горбачев, Ельцин, Путин ......К сожалению такие как он и сейчас во власти....

При непосредственном участии Солженицына был создан совершенно новый жанр литературы-Заказной роман-донос на собственное государство и более того на собственный народ. Не получилось жить Солженицыну не по лжи всеми правдами и не правдами, жил доносчиком, подхалимом и негодяем и ушел на тот свет обыкновенным подонком!



Яндекс.Метрика powered by Sphinx


В Н И М А Н И Е
Сайт не распространяет и не хранит электронные версии произведений, а лишь бесплатно и без коммерческой выгоды (не требуя взамен платы,
SMS и т.д.) предоставляет доступ к создаваемому пользователями каталогу ссылок на торрент-файлы, которые содержат только списки хеш-сумм.
Убедительная просьба с жалобами обращаться напрямую к пользователю, разместившему торрент файл.

Вверх