Loading...
Error

Дикий мёд / Delibal (Али Билькин) [2015 г., драма, мелодрама, WEBRip] VO

Статистика раздачи
Размер:  1,35 GB   |    Зарегистрирован:  7 месяцев   |    Скачан:  4 раза

Полного источника не было: 13 дней

Сидов:  0  |  0 KB/s  ]   Личеров:  0  |  0 KB/s  ]

* - сиды/пиры с внешних источников

   
 
Автор Сообщение

makkol Пол:Муж

25-Апр-2016 11:51

Дикий мёд / Delibal


Год выпуска: 2015
Жанр: драма, мелодрама
Производство: Турция [Ay Yapim]
Режиссер: Али Билькин
В ролях: Чагатай Улусой, Лейла Лидя Тугунлу, Хусейн Авни Даньял, Мустафа Авкиран, Лачин Джейлан, Назан Кесал, Торпак Саглам
Сюжет фильма:
История страстной любви студентов университета Барыша и Фюсун. Барыш учится на факультете архитектуры в университете. Его хобби — игра на барабанах, от этого и от студенческой жизни он получает огромное удовольствие и наслаждение. Когда парень встречает Фюсун, его душа наполняется чувством, совершенно новым для него, подобного раньше Барыш не испытывал… Он понимает, что в этот раз настоящая любовь вошла в его сердце и в его жизнь. Кто эта девушка? Где она живет? Он должен найти ее, даже не зная имени незнакомки. Барыш ищет и находит, но у Фюсун есть только одно желание — закончить университет с отличием и продолжить обучение в Америке, получив степень магистра. Парень должен как-то добиться ее расположения. Красивый, умный и искренний Барыш успешен в этом направлении. Он умудряется добиться своего — Фюсун в него влюбляется, и они женятся. Все, как в сказке… Но однажды этой счастливой сказке приходит конец…

  • Мировая премьера: 25 декабря 2015


Качество видео: WEBRip

Продолжительность: 01:52:30
Формат: AVI
Видео: XviD, 720x400 (16:9), 25.000 fps, 1514 kbps
Аудио: русский, любительский одноголосый закадровый, MP3 2.0, 44.1 kHz, 192 kbps

Код:

Формат                                   : AVI
Формат/Информация                        : Audio Video Interleave
Размер файла                             : 1,35 Гбайт
Продолжительность                        : 1 ч. 52 м.
Общий поток                              : 1716 Кбит/сек

Видео
Идентификатор                            : 0
Формат                                   : MPEG-4 Visual
Профиль формата                          : Advanced Simple@L5
Параметр BVOP формата                    : 2
Параметр QPel формата                    : Нет
Параметр GMC формата                     : Без точки перехода
Параметр матрицы формата                 : Default (H.263)
Идентификатор кодека                     : XVID
Идентификатор кодека/Подсказка           : XviD
Продолжительность                        : 1 ч. 52 м.
Битрейт                                  : 1514 Кбит/сек
Ширина                                   : 720 пикселей
Высота                                   : 400 пикселей
Соотношение сторон                       : 16:9
Частота кадров                           : 25,000 кадров/сек
Цветовое пространство                    : YUV
Субдискретизация насыщенности            : 4:2:0
Битовая глубина                          : 8 бит
Тип развёртки                            : Прогрессивная
Метод сжатия                             : С потерями
Бит/(Пиксели*Кадры)                      : 0.210
Размер потока                            : 1,19 Гбайт (88%)
Библиотека кодирования                   : XviD 73

Аудио
Идентификатор                            : 1
Формат                                   : MPEG Audio
Версия формата                           : Version 1
Профиль формата                          : Layer 3
Режим                                    : Joint stereo
Расширение режима                        : MS Stereo
Идентификатор кодека                     : 55
Идентификатор кодека/Подсказка           : MP3
Продолжительность                        : 1 ч. 52 м.
Вид битрейта                             : Постоянный
Битрейт                                  : 192 Кбит/сек
Каналы                                   : 2 канала
Частота                                  : 44,1 КГц
Метод сжатия                             : С потерями
Размер потока                            : 155 Мбайт (11%)
Выравнивание                             : Разделение по промежуткам
Продолжительность промежутка             : 40  мс. (1,00 видеокадр)
Время предзагрузки промежутка            : 500  мс.
Библиотека кодирования                   : LAME3.99.5
Релиз без рекламы


picpicpicpicpic
Для увеличения картинки щелкните мышкой по превью

Этот торрент недоступен для скачивания без регистрации, однако доступен по публичной magnet-ссылке (источники с публичных трекеров). Перед использованием ссылки прочтите, пожалуйста Пользовательское соглашение, а также как можно дольше оставайтесь на раздаче! Для того, чтобы скачать сам торрент-файл (который видит больше источников), а также для того, чтобы поблагодарить релизера, вам необходимо зарегистрироваться. Если регистрироваться лень - вы можете также попробовать скачать релиз по нашим партнерским ссылкам ниже.

[underverse.su].t65442.torrent
Трекер: Зарегистрирован   [ 25.04.2016 11:51 ]  

Статус: проверено (by makkol at 25.04.2016 23:53)
Поблагодарили: пока никто не поблагодарил...
Тип торрента: публичный - доступные источники с открытых трекеров: 
Размер: 1,35 GB (занимает 0,31 DVDR, для записи нужно 1 болванка DVDR/RW)
 
 

Яндекс.Метрика powered by Sphinx


В Н И М А Н И Е
Сайт не распространяет и не хранит электронные версии произведений, а лишь бесплатно и без коммерческой выгоды (не требуя взамен платы,
SMS и т.д.) предоставляет доступ к создаваемому пользователями каталогу ссылок на торрент-файлы, которые содержат только списки хеш-сумм.
Убедительная просьба с жалобами обращаться напрямую к пользователю, разместившему торрент файл.

Вверх