Loading...
Error

Контрибуция (Полная версия) (Сергей Снежкин) [2016 г., история, детектив, WEB-DLRip]

Статистика раздачи
Размер:  2,18 GB   |    Зарегистрирован:  7 месяцев   |    Скачан:  17 раз
Сидов:  1  |  0 KB/s  ]   Личеров:  0  |  0 KB/s  ]

* - сиды/пиры с внешних источников

   
 
Автор Сообщение

makkol Пол:Муж

25-Апр-2016 11:38

Контрибуция (Полная версия)


Год выпуска: 2016
Жанр: история, детектив
Производство: Россия [Ленфильм]
Режиссер: Сергей Снежкин
В ролях: Максим Матвеев, Елизавета Боярская, Надежда Толубеева, Илья Носков, Евгений Дятлов, Константин Воробьёв, Артур Ваха, Юрий Ицков, Игорь Черневич, Сергей Перегудов
Сюжет фильма:
Действие происходит в 1918 году в Перми. Среднесибирский белогвардейский корпус под командованием молодого генерала Анатолия Николаевича Пепеляева захватывает город. Армия измотана, не хватает патронов, обмундирования, провианта. Генерал приглашает пермских купцов с целью собрать деньги для нужд армии. Богатая вдова Чагина приносит в качестве контрибуции дорогой бриллиант. На следующий день бриллиант таинственным образом исчезает. На поиски привлекают приговоренного к смерти «красного» следователя Андрея Мурзина, который должен найти бриллиант в обмен на помилование.

  • Российская премьера: 17 марта 2016


Качество видео: WEB-DLRip

Продолжительность: 02:42:15
Формат: AVI
Видео: XviD, 720x304 (2.35:1), 25.000 fps, 1723 kbps
Аудио: русский, оригинал, AC3 2.0, 48 kHz, 192 kbps
К съемкам фильма были привлечены военные историки, которые изучали огромное количество архивных материалов с целью создания костюмов главным героям.
Дом губернатора Перми на самом деле является домом N43 на Советской улице в городе Кронштадт.
Роль Перми в фильме исполнил город Кронштадт.
На момент съемочного периода киностудии не повезло с зимой. Она выдалась крайне бесснежной при том, что в фильме мороз достигает -30 градусов. В Кронштадт, где проходила основная часть съемок, везли снег на грузовиках со всего города, а правительство острова специально попросили не убирать снег.
В некоторых названиях компаний с вывесок в городе Пермь можно увидеть фамилии членов съемочной группы. К примеру: «Велосипедные шины братьев Мачильских», в честь оператора Сергея Мачильского.
Один из двух шикарных ретро-корсетов, пошитых специально на заказ для Елизаветы Боярской мастером по дореволюционным корсетам, отработал свое только на кинопробах, поскольку режиссер с оператором во время съемок решили, что в сцене соблазнения белья не должно быть вообще.
Стол, стулья и диван в кабинете (или «приемной») генерала Пепеляева участвовали в съемках почти всех картин о Шерлоке Холмсе Игоря Масленникова.
Следователь Мурзин в исполнении Ильи Носкова носит настоящие часы старинной европейской марки Moser — эту редкую модель часов, которые были очень популярны в царской России, специально для съемок предоставил один известный петербургский коллекционер антиквариата.
Режиссер Сергей Снежкин внес в расстрельные списки генерала Пепеляева пару человек из съемочной группы.
Съемки исторического детектива проходили с января по март 2015 года на киностудии «Ленфильм», в историческом пятом павильоне, где были выстроены декорации резиденции губернатора города. Кроме того, масштабные сцены с участием большой массовки (более 300 человек) снимали в Кронштадте и Пушкине.

Код:

Формат                                   : AVI
Формат/Информация                        : Audio Video Interleave
Профиль формата                          : OpenDML
Размер файла                             : 2,18 Гбайт
Продолжительность                        : 2 ч. 42 м.
Общий поток                              : 1927 Кбит/сек
Программа кодирования                    : VirtualDubMod 1.5.10.2 (build 2540/release)
Библиотека кодирования                   : VirtualDubMod build 2540/release

Видео
Идентификатор                            : 0
Формат                                   : MPEG-4 Visual
Профиль формата                          : Advanced Simple@L5
Параметр BVOP формата                    : 1
Параметр QPel формата                    : Нет
Параметр GMC формата                     : Без точки перехода
Параметр матрицы формата                 : Выборочная
Идентификатор кодека                     : XVID
Идентификатор кодека/Подсказка           : XviD
Продолжительность                        : 2 ч. 42 м.
Битрейт                                  : 1723 Кбит/сек
Ширина                                   : 720 пикселей
Высота                                   : 304 пикселя
Соотношение сторон                       : 2,35:1
Частота кадров                           : 25,000 кадров/сек
Цветовое пространство                    : YUV
Субдискретизация насыщенности            : 4:2:0
Битовая глубина                          : 8 бит
Тип развёртки                            : Прогрессивная
Метод сжатия                             : С потерями
Бит/(Пиксели*Кадры)                      : 0.315
Размер потока                            : 1,95 Гбайт (89%)
Библиотека кодирования                   : XviD 1.2.1 (UTC 2008-12-04)

Аудио
Идентификатор                            : 1
Формат                                   : AC-3
Формат/Информация                        : Audio Coding 3
Расширение режима                        : CM (complete main)
Параметр Endianness формата              : Big
Идентификатор кодека                     : 2000
Продолжительность                        : 2 ч. 42 м.
Вид битрейта                             : Постоянный
Битрейт                                  : 192 Кбит/сек
Каналы                                   : 2 канала
Расположение каналов                     : Front: L R
Частота                                  : 48,0 КГц
Битовая глубина                          : 16 бит
Метод сжатия                             : С потерями
Размер потока                            : 223 Мбайт (10%)
Выравнивание                             : Разделение по промежуткам
Продолжительность промежутка             : 40  мс. (1,00 видеокадр)
Время предзагрузки промежутка            : 500  мс.
Релиз:
Релиз без рекламы


picpicpicpicpic
Для увеличения картинки щелкните мышкой по превью

Этот торрент недоступен для скачивания без регистрации, однако доступен по публичной magnet-ссылке (источники с публичных трекеров). Перед использованием ссылки прочтите, пожалуйста Пользовательское соглашение, а также как можно дольше оставайтесь на раздаче! Для того, чтобы скачать сам торрент-файл (который видит больше источников), а также для того, чтобы поблагодарить релизера, вам необходимо зарегистрироваться. Если регистрироваться лень - вы можете также попробовать скачать релиз по нашим партнерским ссылкам ниже.

[underverse.su].t65441.torrent
Трекер: Зарегистрирован   [ 25.04.2016 11:38 ]  

Статус: проверено (by makkol at 25.04.2016 23:53)
Поблагодарили: пока никто не поблагодарил...
Тип торрента: публичный - доступные источники с открытых трекеров: 
Размер: 2,18 GB (занимает 1/2 DVDR, для записи нужно 1 болванка DVDR/RW)
 
 
Похожие темы
Форум Тема Автор Торрент Отв. Посл. сооб.
Наше кино [DVDRip, Low-Res HDRip, и т.д.] Контрибуция (Сергей Снежкин) [2016 г., история, детектив, WEB-DLRip] [полная версия] 90ytr90
424 | 7

0 | 445

24

28.04.2016 17:35

Наше кино [DVDRip, Low-Res HDRip, и т.д.] Контрибуция (Сергей Снежкин) [2016 г., история, детектив, WEB-DLRip-AVC] [полная версия] 90ytr90
6 | 2

0 | 475

12

28.04.2016 17:48

Наше кино [HDDVDRip / BDRip / WEB-DL / HDTV 1080/720р] Контрибуция (Сергей Снежкин) [2016 г., история, детектив, WEB-DL 720p] [полная версия] 90ytr90
61 | 1

0 | 337

6

28.04.2016 17:40

Наше кино [HDDVDRip / BDRip / WEB-DL / HDTV 1080/720р] Контрибуция (Сергей Снежкин) [2016 г., история, детектив, WEB-DL 1080p] [полная версия] 90ytr90
65 | 2

0 | 383

13

28.04.2016 17:44


Яндекс.Метрика powered by Sphinx


В Н И М А Н И Е
Сайт не распространяет и не хранит электронные версии произведений, а лишь бесплатно и без коммерческой выгоды (не требуя взамен платы,
SMS и т.д.) предоставляет доступ к создаваемому пользователями каталогу ссылок на торрент-файлы, которые содержат только списки хеш-сумм.
Убедительная просьба с жалобами обращаться напрямую к пользователю, разместившему торрент файл.

Вверх