Loading...
Error

Помнить / Remember (Атом Эгоян) [2015 г., триллер, драма, HDRip] Dub

Статистика раздачи
Размер:  1,46 GB   |    Зарегистрирован:  7 месяцев   |    Скачан:  19 раз

Полного источника не было: 2 месяца 28 дней

Сидов:  0  |  0 KB/s  ]   Личеров:  0  |  0 KB/s  ]

* - сиды/пиры с внешних источников

   
 
Автор Сообщение

makkol Пол:Муж

24-Апр-2016 11:26

Помнить / Remember
«Прошлое выйдет из тени»


Год выпуска: 2015
Жанр: триллер, драма
Производство: Канада , Германия [Serendipity Point Films, Egoli Tossell Film]
Режиссер: Атом Эгоян
В ролях: Кристофер Пламмер, Дин Норрис, Мартин Ландау, Юрген Прохнов, Генри Черни, Бруно Ганц, Натали Крилл, Питер ДаКуна, Джеймс Кейд, Сугит Варухесе
Сюжет фильма:
Многие годы Зев Гутман старается забыть все то, что произошло с ним в Освенциме. Прошло уже семьдесят лет: Зев обзавелся семьей, построил уютную и спокойную жизнь, и сейчас он находится на заслуженном отдыхе в доме престарелых. Но он так и не смог преодолеть ужас, пережитый в лагере смерти. Макс, его старый друг, вышел на след человека, мучившего их обоих в Освенциме.
Преступник смог избежать правосудия, а теперь спокойно живет в Америке под именем Руди Курландера. Старые друзья решают отыскать его и самолично восстановить справедливость. Но Макс прикован к инвалидной коляске, поэтому завершить начатое должен Зев. Не сообщив ничего семье, Зев решается в одиночку совершить возмездие…

  • Мировая премьера: 10 сентября 2015
  • Российская премьера: 24 марта 2016


Качество видео: HDRip

Продолжительность: 01:34:22
Формат: AVI
Видео: XviD, 720x400 (16:9), 23.976 fps, 1821 kbps
Аудио: русский, дублированный (iTunes), AC3 5.1, 48 kHz, 384 kbps

Код:

Формат                                   : AVI
Формат/Информация                        : Audio Video Interleave
Размер файла                             : 1,46 Гбайт
Продолжительность                        : 1 ч. 34 м.
Общий поток                              : 2214 Кбит/сек
Программа кодирования                    : VirtualDubMod 1.5.10.2 (build 2540/release)
Библиотека кодирования                   : VirtualDubMod build 2540/release

Видео
Идентификатор                            : 0
Формат                                   : MPEG-4 Visual
Профиль формата                          : Advanced Simple@L5
Параметр BVOP формата                    : 2
Параметр QPel формата                    : Нет
Параметр GMC формата                     : Без точки перехода
Параметр матрицы формата                 : Default (MPEG)
Идентификатор кодека                     : XVID
Идентификатор кодека/Подсказка           : XviD
Продолжительность                        : 1 ч. 34 м.
Битрейт                                  : 1821 Кбит/сек
Ширина                                   : 720 пикселей
Высота                                   : 400 пикселей
Соотношение сторон                       : 16:9
Частота кадров                           : 23,976 (24000/1001) кадра/сек
Цветовое пространство                    : YUV
Субдискретизация насыщенности            : 4:2:0
Битовая глубина                          : 8 бит
Тип развёртки                            : Прогрессивная
Метод сжатия                             : С потерями
Бит/(Пиксели*Кадры)                      : 0.264
Размер потока                            : 1,20 Гбайт (82%)
Библиотека кодирования                   : XviD 1.2.1 (UTC 2008-12-04)

Аудио
Идентификатор                            : 1
Формат                                   : AC-3
Формат/Информация                        : Audio Coding 3
Расширение режима                        : CM (complete main)
Параметр Endianness формата              : Big
Идентификатор кодека                     : 2000
Продолжительность                        : 1 ч. 34 м.
Вид битрейта                             : Постоянный
Битрейт                                  : 384 Кбит/сек
Каналы                                   : 6 каналов
Расположение каналов                     : Front: L C R, Side: L R, LFE
Частота                                  : 48,0 КГц
Частота кадров                           : 31,250 кадров/сек (1536 spf)
Метод сжатия                             : С потерями
Размер потока                            : 259 Мбайт (17%)
Выравнивание                             : Разделение по промежуткам
Продолжительность промежутка             : 42  мс. (1,00 видеокадр)
Время предзагрузки промежутка            : 500  мс.
Релиз без рекламы


picpicpicpicpic
Для увеличения картинки щелкните мышкой по превью

Этот торрент недоступен для скачивания без регистрации, однако доступен по публичной magnet-ссылке (источники с публичных трекеров). Перед использованием ссылки прочтите, пожалуйста Пользовательское соглашение, а также как можно дольше оставайтесь на раздаче! Для того, чтобы скачать сам торрент-файл (который видит больше источников), а также для того, чтобы поблагодарить релизера, вам необходимо зарегистрироваться. Если регистрироваться лень - вы можете также попробовать скачать релиз по нашим партнерским ссылкам ниже.

[underverse.su].t65428.torrent
Трекер: Зарегистрирован   [ 24.04.2016 11:26 ]  

Статус: T временная (by makkol at 25.04.2016 23:46)
Поблагодарили: 1 человек
Тип торрента: публичный - доступные источники с открытых трекеров: 
Размер: 1,46 GB (занимает 0,33 DVDR, для записи нужно 1 болванка DVDR/RW)
 
 
Похожие темы
Форум Тема Автор Торрент Отв. Посл. сооб.
Зарубежное кино [DVDRip, Low-Res HDRip, и т.д.] Помнить / Remember (Атом Эгоян / Atom Egoyan) [2015 г., триллер, драма, HDRip] MVO (Parovoz Production) 90ytr90
43 | 0

0 | 568

4

27.02.2016 11:50

Зарубежное кино [DVDRip, Low-Res HDRip, и т.д.] Помнить / Remember (Атом Эгоян / Atom Egoyan) [2015 г., триллер, драма, HDRip] MVO (Parovoz Production) 90ytr90
41 | 0

0 | 442

7

28.02.2016 09:41

T Зарубежное кино [HDDVDRip / BDRip / WEB-DL / HDTV 1080/720р] Помнить / Remember (Атом Эгоян ) [2015 г., триллер, драма, BDRip 720p] Dub + Original makkol
49 | 1

0 | 541

12

24.04.2016 11:35


Яндекс.Метрика powered by Sphinx


В Н И М А Н И Е
Сайт не распространяет и не хранит электронные версии произведений, а лишь бесплатно и без коммерческой выгоды (не требуя взамен платы,
SMS и т.д.) предоставляет доступ к создаваемому пользователями каталогу ссылок на торрент-файлы, которые содержат только списки хеш-сумм.
Убедительная просьба с жалобами обращаться напрямую к пользователю, разместившему торрент файл.

Вверх