Loading...
Error

Владимир Набоков. Русские корни [2009 г., документальный, биография, TVRip]

Статистика раздачи
Размер:  720 MB   |    Зарегистрирован:  7 месяцев   |    Скачан:  1 раз

Полного источника не было: 7 месяцев

Сидов:  0  |  0 KB/s  ]   Личеров:  0  |  0 KB/s  ]

* - сиды/пиры с внешних источников

   
 
Автор Сообщение

ARI71 Пол:Муж

24-Апр-2016 09:22

Владимир Набоков. Русские корни


Год выпуска: 2009
Жанр: документальный, биография
Страна: Россия Кинокомпания "ТИГР"
Режиссер: Ольга Чекалина
Сюжет фильма:
Документальный фильм «Владимир Набоков. Русские корни» рассказывает о семье известного русского и американского писателя Владимира Набокова, о роде Набоковых и роде Рукавишниковых, о родителях Владимира Набокова, о жизни семьи в России до 1919 года, когда она вынуждена была покинуть Россию навсегда. Съемки фильма проходили в Санкт-Петербурге, где родился Владимир Набоков, в селе Рождествено, где прошли его юные годы, в Монтре (Швейцария), где сейчас живет его единственный сын Дмитрий Набоков. В фильме также снимались известные литературоведы России и США.

Влади́мир Влади́мирович Набо́ков (публиковался также под псевдонимом Владимир Си́рин; 10 [22] апреля 1899, Санкт-Петербург — 2 июля 1977, Монтрё) — русский и американский писатель, поэт, переводчик, литературовед и энтомолог.

Качество видео: TVRip

Продолжительность: 00:51:59
Формат: AVI
Видео: DivX 5, 704x528, ~1797 kbps
Аудио: русский, (оригинал), MP3 2.0, ~128.00 kbps

Код:

Общее
Полное имя : D:\Vladimir.Nabokov.Russkie.Korni.TV-rip.by.mikloeff.avi
Формат : AVI
Формат/Информация : Audio Video Interleave
Размер файла : 720 Мбайт
Продолжительность : 51 м.
Общий поток : 1935 Кбит/сек
Библиотека кодирования : VirtualDub build 32593/release

Видео
Идентификатор : 0
Формат : MPEG-4 Visual
Параметр BVOP формата : Нет
Параметр QPel формата : Нет
Параметр GMC формата : Без точки перехода
Параметр матрицы формата : Default (H.263)
Идентификатор кодека : DX50
Идентификатор кодека/Подсказка : DivX 5
Продолжительность : 51 м.
Битрейт : 1797 Кбит/сек
Ширина : 704 пикселя
Высота : 528 пикселей
Соотношение сторон : 4:3
Частота кадров : 25,000 кадров/сек
Цветовое пространство : YUV
Субдискретизация насыщенности : 4:2:0
Битовая глубина : 8 бит
Тип развёртки : Прогрессивная
Метод сжатия : С потерями
Бит/(Пиксели*Кадры) : 0.193
Размер потока : 669 Мбайт (93%)
Библиотека кодирования : DivX 5.2.1 (DrDivX 106) (UTC 2004-09-08)

Аудио
Идентификатор : 1
Формат : MPEG Audio
Версия формата : Version 1
Профиль формата : Layer 3
Режим : Joint stereo
Расширение режима : MS Stereo
Идентификатор кодека : 55
Идентификатор кодека/Подсказка : MP3
Продолжительность : 51 м.
Вид битрейта : Постоянный
Битрейт : 128 Кбит/сек
Каналы : 2 канала
Частота : 48,0 КГц
Метод сжатия : С потерями
Размер потока : 47,6 Мбайт (7%)
Выравнивание : Разделение по промежуткам
Продолжительность промежутка : 40 мс. (1,00 видеокадр)
Время предзагрузки промежутка : 500 мс.
picpicpicpicpic
Для увеличения картинки щелкните мышкой по превью

Этот торрент недоступен для скачивания без регистрации, однако доступен по публичной magnet-ссылке (источники с публичных трекеров). Перед использованием ссылки прочтите, пожалуйста Пользовательское соглашение, а также как можно дольше оставайтесь на раздаче! Для того, чтобы скачать сам торрент-файл (который видит больше источников), а также для того, чтобы поблагодарить релизера, вам необходимо зарегистрироваться. Если регистрироваться лень - вы можете также попробовать скачать релиз по нашим партнерским ссылкам ниже.

[underverse.su].t65426.torrent
Трекер: Зарегистрирован   [ 24.04.2016 09:22 ]  

Статус: проверено (by makkol at 24.04.2016 09:46)
Поблагодарили: пока никто не поблагодарил...
Тип торрента: публичный - доступные источники с открытых трекеров: 
Размер: 720 MB (занимает 0,16 DVDR, для записи нужно 1 болванка DVDR/RW)
 
 

Яндекс.Метрика powered by Sphinx


В Н И М А Н И Е
Сайт не распространяет и не хранит электронные версии произведений, а лишь бесплатно и без коммерческой выгоды (не требуя взамен платы,
SMS и т.д.) предоставляет доступ к создаваемому пользователями каталогу ссылок на торрент-файлы, которые содержат только списки хеш-сумм.
Убедительная просьба с жалобами обращаться напрямую к пользователю, разместившему торрент файл.

Вверх