Loading...
Error

Звёздные войны: Пробуждение силы / Star Wars: Episode VII - The Force Awakens (Джей Джей Абрамс) [2015 г., фантастика, фэнтези, боевик, приключения, BDRip] Dub

Статистика раздачи
Размер:  1,46 GB   |    Зарегистрирован:  1 год 7 месяцев   |    Скачан:  25 раз

Полного источника не было: 57 минут

Сидов:  0  |  0 KB/s  ]   Личеров:  0  |  0 KB/s  ]

* - сиды/пиры с внешних источников

   
 
Автор Сообщение

makkol Пол:Муж

23-Апр-2016 15:15

Звёздные войны: Пробуждение силы
Star Wars: The Force Awakens
«Каждое поколение имеет свою историю»

Год выпуска: 2015
Жанр: фантастика, фэнтези, боевик, приключения
Производство: США [Bad Robot, Lucasfilm Ltd., Truenorth Productions]
Режиссер: Джей Джей Абрамс
В ролях: Джон Бойега, Дэйзи Ридли, Оскар Айзек, Адам Драйвер, Донал Глисон, Харрисон Форд, Марк Хэмилл, Кэрри Фишер, Макс фон Сюдов, Энди Серкис
Сюжет фильма:
Через тридцать лет после гибели Дарта Вейдера и Императора галактика по-прежнему в опасности. Государственное образование Новый Порядок во главе с их таинственным верховным лидером Сноуком и его правой рукой Кайло Реном идёт по стопам Империи, пытаясь захватить всю власть. В это нелёгкое время судьба сводит юную девушку Рей и бывшего штурмовика Нового Порядка Финна с героями времён войны с Империей — Ханом Соло, Чубаккой и Королевой Леей. Вместе они должны дать бой Новому Порядку, однако настаёт тот момент, когда становится очевидно, что лишь джедаи могут остановить Сноука и Кайло Рена. И в галактике в живых остаётся только один…

  • Мировая премьера: 14 декабря 2015
  • Российская премьера: 17 декабря 2015


Релиз: Лицензия [BD EUR]. Русский локализованный видеоряд.
Качество видео: BDRip

Продолжительность: 02:18:06
Формат: AVI
Видео: XviD, 720x304 (2.35:1), 23.976 fps, 1055 kbps
Аудио: русский, дублированный, AC3 5.1, 48 kHz, 448 kbps
Субтитры: русские вшитые на наречие пришельцев

Код:

Формат                                   : AVI
Формат/Информация                        : Audio Video Interleave
Размер файла                             : 1,46 Гбайт
Продолжительность                        : 2 ч. 18 м.
Общий поток                              : 1513 Кбит/сек
Программа кодирования                    : VirtualDubModRus 1.5.10.2 (build 2542/release)
Библиотека кодирования                   : VirtualDubMod build 2542/release

Видео
Идентификатор                            : 0
Формат                                   : MPEG-4 Visual
Профиль формата                          : Advanced Simple@L5
Параметр BVOP формата                    : 1
Параметр QPel формата                    : Нет
Параметр GMC формата                     : Без точки перехода
Параметр матрицы формата                 : Default (MPEG)
Идентификатор кодека                     : XVID
Идентификатор кодека/Подсказка           : XviD
Продолжительность                        : 2 ч. 18 м.
Битрейт                                  : 1055 Кбит/сек
Ширина                                   : 720 пикселей
Высота                                   : 304 пикселя
Соотношение сторон                       : 2,35:1
Частота кадров                           : 23,976 кадра/сек
Цветовое пространство                    : YUV
Субдискретизация насыщенности            : 4:2:0
Битовая глубина                          : 8 бит
Тип развёртки                            : Прогрессивная
Метод сжатия                             : С потерями
Бит/(Пиксели*Кадры)                      : 0.201
Размер потока                            : 1,02 Гбайт (70%)
Библиотека кодирования                   : XviD 1.2.1 (UTC 2008-12-04)

Аудио
Идентификатор                            : 1
Формат                                   : AC-3
Формат/Информация                        : Audio Coding 3
Расширение режима                        : CM (complete main)
Параметр Endianness формата              : Big
Идентификатор кодека                     : 2000
Продолжительность                        : 2 ч. 18 м.
Вид битрейта                             : Постоянный
Битрейт                                  : 448 Кбит/сек
Каналы                                   : 6 каналов
Расположение каналов                     : Front: L C R, Side: L R, LFE
Частота                                  : 48,0 КГц
Битовая глубина                          : 16 бит
Метод сжатия                             : С потерями
Размер потока                            : 443 Мбайт (30%)
Выравнивание                             : Разделение по промежуткам
Продолжительность промежутка             : 42  мс. (1,00 видеокадр)
Время предзагрузки промежутка            : 500  мс.
picpicpicpicpic
Для увеличения картинки щелкните мышкой по превью

Этот торрент недоступен для скачивания без регистрации, однако доступен по публичной magnet-ссылке (источники с публичных трекеров). Перед использованием ссылки прочтите, пожалуйста Пользовательское соглашение, а также как можно дольше оставайтесь на раздаче! Для того, чтобы скачать сам торрент-файл (который видит больше источников), а также для того, чтобы поблагодарить релизера, вам необходимо зарегистрироваться. Если регистрироваться лень - вы можете также попробовать скачать релиз по нашим партнерским ссылкам ниже.

[underverse.su].t65411.torrent
Трекер: Зарегистрирован   [ 23.04.2016 15:15 ]  

Статус: проверено (by makkol at 25.04.2016 23:28)
Поблагодарили: пока никто не поблагодарил...
Тип торрента: публичный - доступные источники с открытых трекеров: 
Размер: 1,46 GB (занимает 0,33 DVDR, для записи нужно 1 болванка DVDR/RW)
 
 
Похожие темы
Форум Тема Автор Торрент Отв. Посл. сооб.
Зарубежное кино [DVDRip, Low-Res HDRip, и т.д.] Звездные врата / Stargate (Роланд Эммерих) [1994 г., Фантастика, боевик, приключения, BDRip-AVC] Чертёнок
0 | 0

0 | 2029

15

13.05.2013 09:38

Зарубежное кино [DVDRip, Low-Res HDRip, и т.д.] Звёздные войны: Пробуждение силы / Star Wars: Episode VII - The Force Awakens (Джей Джей Абрамс / J.J. Abrams) [2015 г., фантастика, фэнтези, боевик, приключения, BDRip-AVC] Dub + Original (Eng) +... 90ytr90
287 | 18

0 | 1052

12

01.11.2016 17:55

Зарубежное кино [DVDRip, Low-Res HDRip, и т.д.] Звёздные войны: Пробуждение силы / Star Wars: Episode VII - The Force Awakens (Джей Джей Абрамс / J.J. Abrams) [2015 г., фантастика, фэнтези, боевик, приключения, BDRip-AVC] Dub + Sub (Rus, Eng) 90ytr90
34 | 4

0 | 1063

10

01.11.2016 17:43

Зарубежное кино [DVDRip, Low-Res HDRip, и т.д.] Звёздные войны: Пробуждение силы / Star Wars: Episode VII - The Force Awakens (Джей Джей Абрамс) [2015 г., фантастика, фэнтези, боевик, приключения, BDRip] Dub makkol
0 | 0

0 | 1372

12

23.04.2016 10:12

Зарубежное кино [DVDRip, Low-Res HDRip, и т.д.] Звёздные войны: Пробуждение силы / Star Wars: Episode VII - The Force Awakens (Джей Джей Абрамс / J.J. Abrams) [2015 г., фантастика, фэнтези, боевик, приключения, HDRip] MVO (FocusStudio) 90ytr90
2 | 3

0 | 1515

7

27.04.2016 18:07

Зарубежное кино [DVDRip, Low-Res HDRip, и т.д.] Звёздные войны: Пробуждение силы / Star Wars: Episode VII - The Force Awakens (Джей Джей Абрамс) [2015 г., фантастика, фэнтези, боевик, приключения, BDRip-AVC] Dub Dryn9
66 | 7

0 | 1608

34

28.04.2016 09:56

Зарубежное кино [DVDRip, Low-Res HDRip, и т.д.] Звёздные войны: Пробуждение силы / Star Wars: Episode VII - The Force Awakens (Джей Джей Абрамс) [2015 г., Фантастика, фэнтези, боевик, приключения, HDRip-AVC] [Лицензия] Dub Dryn9
13 | 1

0 | 1643

6

30.04.2016 10:31

Зарубежное кино HQ Звездные войны: Эпизод 1-6 (Джордж Лукас) [1977-2005 г., фантастика, боевик, фэнтези, приключения, HDTVRip] Паукан
0 | 0

27 | 10052

81

01.12.2012 09:23

Зарубежные сериалы Звездные Врата: Атлантида / Stargate: Atlantis (Сезон 4) Серия 1-20 (Мартин Вуд) [2007 г., Фантастика, DVDRip] Lothoriel
0 | 0

7 | 3371

1

19.08.2009 10:16

Зарубежные сериалы Звездные врата: Вселенная / Stargate Universe / Сезоны 1-2 / Серии 1-40 (40) (Энди Микита, Уильям Варинг, Питер ДеЛуис) [2009-2011 г., фантастика, боевик, фэнтези, приключение, драма, WEB-DLRip] MVO... Чертёнок
2 | 1

0 | 1152

14

15.08.2013 10:39

PER@N Пол:Муж

16-Дек-2016 08:19

Субтитры вшиты..... Английские.

Яндекс.Метрика powered by Sphinx


В Н И М А Н И Е
Сайт не распространяет и не хранит электронные версии произведений, а лишь бесплатно и без коммерческой выгоды (не требуя взамен платы,
SMS и т.д.) предоставляет доступ к создаваемому пользователями каталогу ссылок на торрент-файлы, которые содержат только списки хеш-сумм.
Убедительная просьба с жалобами обращаться напрямую к пользователю, разместившему торрент файл.

Вверх