Loading...
Error

Острова. Венедикт Ерофеев [2008 г., документальный, биография, литература, TVRip]

Статистика раздачи
Размер:  533 MB   |    Зарегистрирован:  7 месяцев   |    Скачан:  1 раз

Полного источника не было: 7 месяцев

Сидов:  0  |  0 KB/s  ]   Личеров:  0  |  0 KB/s  ]

* - сиды/пиры с внешних источников

   
 
Автор Сообщение

ARI71 Пол:Муж

22-Апр-2016 16:51

Острова. Венедикт Ерофеев


Год выпуска: 2008
Жанр: документальный, биография, литература
Страна: Россия "Культура"
Режиссер: Светлана Быченко
Сюжет фильма:
«Острова» - телевизионный документальный цикл, который с января 2000 года ежемесячно, а с сентября того же года дважды в месяц выходит на телеканале «Культура». По первоначальному замыслу каждый новый выпуск должен был стать для зрителя открытием нового «острова», обладающего своей суверенной территорией в искусстве и, как правило, обойденного всеобщим вниманием или непонятого.

Венеди́кт Васи́льевич Ерофе́ев (24 октября 1938, Нива-3, Мурманская область — 11 мая 1990, Москва) — советский писатель, автор поэмы «Москва — Петушки».

Качество видео: TVRip

Продолжительность: 00:38:29
Формат: AVI
Видео: DivX 5, 704x528, ~1799 kbps
Аудио: русский, (оригинал), MP3 2.0, ~128.00 kbps

Код:

Общее
Полное имя : D:\Ostrova.Venedikt.Erofeev.2008.TVRip.avi
Формат : AVI
Формат/Информация : Audio Video Interleave
Размер файла : 533 Мбайт
Продолжительность : 38 м.
Общий поток : 1937 Кбит/сек
Библиотека кодирования : VirtualDub build 28292/release

Видео
Идентификатор : 0
Формат : MPEG-4 Visual
Параметр BVOP формата : Нет
Параметр QPel формата : Нет
Параметр GMC формата : Без точки перехода
Параметр матрицы формата : Default (H.263)
Идентификатор кодека : DX50
Идентификатор кодека/Подсказка : DivX 5
Продолжительность : 38 м.
Битрейт : 1799 Кбит/сек
Ширина : 704 пикселя
Высота : 528 пикселей
Соотношение сторон : 4:3
Частота кадров : 25,000 кадров/сек
Цветовое пространство : YUV
Субдискретизация насыщенности : 4:2:0
Битовая глубина : 8 бит
Тип развёртки : Прогрессивная
Метод сжатия : С потерями
Бит/(Пиксели*Кадры) : 0.194
Размер потока : 495 Мбайт (93%)
Библиотека кодирования : DivX 5.2.1 (WaffleDay) (UTC 2004-09-08)

Аудио
Идентификатор : 1
Формат : MPEG Audio
Версия формата : Version 1
Профиль формата : Layer 3
Режим : Joint stereo
Расширение режима : MS Stereo
Идентификатор кодека : 55
Идентификатор кодека/Подсказка : MP3
Продолжительность : 38 м.
Вид битрейта : Постоянный
Битрейт : 128 Кбит/сек
Каналы : 2 канала
Частота : 48,0 КГц
Метод сжатия : С потерями
Размер потока : 35,2 Мбайт (7%)
Выравнивание : Разделение по промежуткам
Продолжительность промежутка : 40 мс. (1,00 видеокадр)
Время предзагрузки промежутка : 500 мс.
Релиз группы:

picpicpicpic
Для увеличения картинки щелкните мышкой по превью

Этот торрент недоступен для скачивания без регистрации, однако доступен по публичной magnet-ссылке (источники с публичных трекеров). Перед использованием ссылки прочтите, пожалуйста Пользовательское соглашение, а также как можно дольше оставайтесь на раздаче! Для того, чтобы скачать сам торрент-файл (который видит больше источников), а также для того, чтобы поблагодарить релизера, вам необходимо зарегистрироваться. Если регистрироваться лень - вы можете также попробовать скачать релиз по нашим партнерским ссылкам ниже.

[underverse.su].t65382.torrent
Трекер: Зарегистрирован   [ 22.04.2016 16:51 ]  

Статус: проверено (by makkol at 22.04.2016 17:44)
Поблагодарили: пока никто не поблагодарил...
Тип торрента: публичный - доступные источники с открытых трекеров: 
Размер: 533 MB (занимает 0,12 DVDR, для записи нужно 1 болванка DVDR/RW)
 
 

Яндекс.Метрика powered by Sphinx


В Н И М А Н И Е
Сайт не распространяет и не хранит электронные версии произведений, а лишь бесплатно и без коммерческой выгоды (не требуя взамен платы,
SMS и т.д.) предоставляет доступ к создаваемому пользователями каталогу ссылок на торрент-файлы, которые содержат только списки хеш-сумм.
Убедительная просьба с жалобами обращаться напрямую к пользователю, разместившему торрент файл.

Вверх