Loading...
Error

Прикладная ихтиология (1-13 серий из 13) [2013 г., документальный, познавательный, рыбалка, SatRip]

Статистика раздачи
Размер:  4,79 GB   |    Зарегистрирован:  7 месяцев   |    Скачан:  1 раз

Полного источника не было: 22 дня

Сидов:  0  |  0 KB/s  ]   Личеров:  0  |  0 KB/s  ]

* - сиды/пиры с внешних источников

   
 
Автор Сообщение

ARI71 Пол:Муж

22-Апр-2016 14:39

Прикладная ихтиология (1-13 серий из 13)


Год выпуска: 2013
Жанр: документальный, познавательный, рыбалка
Страна: Россия ООО "Совпроект"
Режиссер: ТК "Стрим"
Ведущие: Алексей Гусев, Кирилл Кузищин
Сюжет фильма:
Нужны ли рыболову знания ихтиологии или и без специальных знаний можно хорошо отловиться? Каждый для себя решает сам. Другое дело, что мы, порой безотчетно, для более эффективной рыбалки пытаемся понять водоем, учесть кормовую базу, перепады температур, наличие растительности, рельеф дна и прочее, прочее. Если бы было какое-то прикладное пособие по ихтиологии именно для рыболова, тогда наука как помощница на рыбалке была бы оценена по достоинству.
Качество видео: SatRip

Продолжительность: 13 х ~ 00:25:52
Формат: AVI
Видео: DivX 5, 640x360, ~1901 kbps
Аудио: русский, (оригинал), MP3 (mono), ~128.00 kbps
(тех. данные всех выпусков идентичны)
01. Барракуда
02. Вобла
03. Зимовальные ямы
04. Карась
05. Красноперка
06. Лещь
07. Окунь
08. Осетровые
09. Плотва
10. Сайда
11. Таймень
12. Хариус
13. Язь

Код:

Общее
Полное имя : D:\Прикладная ихтиология (SATRip)\01.Баракуда.avi
Формат : AVI
Формат/Информация : Audio Video Interleave
Размер файла : 378 Мбайт
Продолжительность : 25 м.
Общий поток : 2039 Кбит/сек
Программа кодирования : VirtualDubMod 1.5.10.3 | www.virtualdub-fr.org || (build 2550/release)
Библиотека кодирования : VirtualDubMod build 2550/release

Видео
Идентификатор : 0
Формат : MPEG-4 Visual
Профиль формата : Advanced Simple@L5
Параметр BVOP формата : 1
Параметр QPel формата : Нет
Параметр GMC формата : Без точки перехода
Параметр матрицы формата : Default (MPEG)
Идентификатор кодека : DX50
Идентификатор кодека/Подсказка : DivX 5
Продолжительность : 25 м.
Битрейт : 1901 Кбит/сек
Ширина : 640 пикселей
Высота : 360 пикселей
Соотношение сторон : 16:9
Частота кадров : 25,000 кадров/сек
Цветовое пространство : YUV
Субдискретизация насыщенности : 4:2:0
Битовая глубина : 8 бит
Тип развёртки : Прогрессивная
Метод сжатия : С потерями
Бит/(Пиксели*Кадры) : 0.330
Размер потока : 352 Мбайт (93%)
Библиотека кодирования : XviD 1.2.1 (UTC 2008-12-04)

Аудио
Идентификатор : 1
Формат : MPEG Audio
Версия формата : Version 1
Профиль формата : Layer 3
Идентификатор кодека : 55
Идентификатор кодека/Подсказка : MP3
Продолжительность : 25 м.
Вид битрейта : Постоянный
Битрейт : 128 Кбит/сек
Каналы : 1 канал
Частота : 48,0 КГц
Метод сжатия : С потерями
Размер потока : 23,7 Мбайт (6%)
Выравнивание : Соединение по промежуткам
Продолжительность промежутка : 40 мс. (1,00 видеокадр)
Время предзагрузки промежутка : 504 мс.
Библиотека кодирования : LAME3.99r
Настройки программы : -m m -V 4 -q 2 -lowpass 20.5 -b 128
Релиз группы:

picpicpicpicpic
Для увеличения картинки щелкните мышкой по превью

Этот торрент недоступен для скачивания без регистрации, однако доступен по публичной magnet-ссылке (источники с публичных трекеров). Перед использованием ссылки прочтите, пожалуйста Пользовательское соглашение, а также как можно дольше оставайтесь на раздаче! Для того, чтобы скачать сам торрент-файл (который видит больше источников), а также для того, чтобы поблагодарить релизера, вам необходимо зарегистрироваться. Если регистрироваться лень - вы можете также попробовать скачать релиз по нашим партнерским ссылкам ниже.

[underverse.su].t65378.torrent
Трекер: Зарегистрирован   [ 22.04.2016 14:39 ]  

Статус: проверено (by makkol at 22.04.2016 15:32)
Поблагодарили: пока никто не поблагодарил...
Тип торрента: публичный - доступные источники с открытых трекеров: 
Размер: 4,79 GB (занимает 1,09 DVDR, для записи нужно 2 болванки DVDR/RW)
 
 

Яндекс.Метрика powered by Sphinx


В Н И М А Н И Е
Сайт не распространяет и не хранит электронные версии произведений, а лишь бесплатно и без коммерческой выгоды (не требуя взамен платы,
SMS и т.д.) предоставляет доступ к создаваемому пользователями каталогу ссылок на торрент-файлы, которые содержат только списки хеш-сумм.
Убедительная просьба с жалобами обращаться напрямую к пользователю, разместившему торрент файл.

Вверх