Loading...
Error

Амазонки и гладиаторы / Amazons and Gladiators (Захари Вентрауб) [2001 г., исторический, боевик, драма, приключения, DVDRip] DVO

Статистика раздачи
Размер:  673 MB   |    Зарегистрирован:  7 месяцев   |    Скачан:  7 раз

Полного источника не было: 6 месяцев

Сидов:  0  |  0 KB/s  ]   Личеров:  0  |  0 KB/s  ]

* - сиды/пиры с внешних источников

   
 
Автор Сообщение

ARI71 Пол:Муж

22-Апр-2016 10:47

Амазонки и гладиаторы / Amazons and Gladiators


Год выпуска: 2001
Жанр: исторический, боевик, драма, приключения
Страна: США , Германия MBP (Germany), Weintraub/Kuhn Productions
Режиссер: Захари Вентрауб
В ролях: Патрик Бергин, Дженнифер Рубин, Ричард Нортон, Николь Хильтц, Мэри Тэмм, Рона Вэддингтон
Сюжет фильма:
Марк Красс, один из генералов Цезаря, был талантливым полководцем и победителем легендарного Спартака. Но, впав в немилость, он по приказу императора был отправлен наместником в отдаленную северную провинцию необъятной Римской Империи. Разозленный Красс вымещал свой гнев на местных жителях, убивая простых людей и разоряя их дома. Его любимым развлечением были гладиаторские бои. Однажды Красс жестоко расправляется с матерью двенадцатилетней Сирены, а ее старшую сестру забирает в рабство. Осиротевшая девочка попадает к амазонкам, которые воспитывают ее бесстрашной воительницей. Она жаждет отомстить за себя и свою семью. Вскоре судьба снова сводит Сирену и Красса вместе. Предстоит жестокая схватка…

  • Мировая премьера: Сентябрь 2001


Качество видео: DVDRip

Продолжительность: 01:29:21
Формат: AVI
Видео: DivX 3, 512x288, ~921.00 kbps
Аудио: русский, двухголосый закадровый (профессиональный), MP3 2.0, ~118.43 kbps

Код:

Общее
Полное имя : D:\Amazons_&_Gladiators.avi
Формат : AVI
Формат/Информация : Audio Video Interleave
Размер файла : 673 Мбайт
Продолжительность : 1 ч. 29 м.
Режим общего битрейта : Переменный
Общий поток : 1053 Кбит/сек
Программа кодирования : Nandub v1.0rc2
Библиотека кодирования : Nandub build 1853/release

Видео
Идентификатор : 0
Формат : MPEG-4 Visual
Идентификатор кодека : DIV3
Идентификатор кодека/Подсказка : DivX 3 Low
Продолжительность : 1 ч. 29 м.
Битрейт : 921 Кбит/сек
Ширина : 512 пикселей
Высота : 288 пикселей
Соотношение сторон : 16:9
Частота кадров : 25,000 кадров/сек
Цветовое пространство : YUV
Субдискретизация насыщенности : 4:2:0
Битовая глубина : 8 бит
Метод сжатия : С потерями
Бит/(Пиксели*Кадры) : 0.250
Размер потока : 589 Мбайт (88%)

Аудио
Идентификатор : 1
Формат : MPEG Audio
Версия формата : Version 1
Профиль формата : Layer 3
Режим : Joint stereo
Расширение режима : MS Stereo
Идентификатор кодека : 55
Идентификатор кодека/Подсказка : MP3
Продолжительность : 1 ч. 29 м.
Вид битрейта : Переменный
Битрейт : 118 Кбит/сек
Каналы : 2 канала
Частота : 48,0 КГц
Метод сжатия : С потерями
Задержка видео : 21 мс.
Размер потока : 75,7 Мбайт (11%)
Выравнивание : Соединение по промежуткам
Продолжительность промежутка : 24 мс. (0,60 видеокадр)
Время предзагрузки промежутка : 519 мс.
picpicpicpicpic
Для увеличения картинки щелкните мышкой по превью

Этот торрент недоступен для скачивания без регистрации, однако доступен по публичной magnet-ссылке (источники с публичных трекеров). Перед использованием ссылки прочтите, пожалуйста Пользовательское соглашение, а также как можно дольше оставайтесь на раздаче! Для того, чтобы скачать сам торрент-файл (который видит больше источников), а также для того, чтобы поблагодарить релизера, вам необходимо зарегистрироваться. Если регистрироваться лень - вы можете также попробовать скачать релиз по нашим партнерским ссылкам ниже.

[underverse.su].t65369.torrent
Трекер: Зарегистрирован   [ 22.04.2016 10:47 ]  

Статус: проверено (by makkol at 22.04.2016 12:30)
Поблагодарили: 1 человек
Тип торрента: публичный - доступные источники с открытых трекеров: 
Размер: 673 MB (занимает 0,15 DVDR, для записи нужно 1 болванка DVDR/RW)
 
 

Яндекс.Метрика powered by Sphinx


В Н И М А Н И Е
Сайт не распространяет и не хранит электронные версии произведений, а лишь бесплатно и без коммерческой выгоды (не требуя взамен платы,
SMS и т.д.) предоставляет доступ к создаваемому пользователями каталогу ссылок на торрент-файлы, которые содержат только списки хеш-сумм.
Убедительная просьба с жалобами обращаться напрямую к пользователю, разместившему торрент файл.

Вверх