Loading...
Error

Джейн берет ружье / Jane Got a Gun (Гэвин О’Коннор) [2015 г., боевик, драма, вестерн, BDRip] Dub

Статистика раздачи
Размер:  1,46 GB   |    Зарегистрирован:  7 месяцев   |    Скачан:  11 раз

Полного источника не было: 1 месяц 1 день

Сидов:  0  |  0 KB/s  ]   Личеров:  0  |  0 KB/s  ]

* - сиды/пиры с внешних источников

   
 
Автор Сообщение

makkol Пол:Муж

21-Апр-2016 22:25

Джейн берет ружье / Jane Got a Gun


Год выпуска: 2015
Жанр: боевик, драма, вестерн
Производство: США [1821 Pictures, Boies/Schiller Film Group, Handsomecharlie Films]
Режиссер: Гэвин О’Коннор
В ролях: Натали Портман, Джоэл Эдгертон, Эван МакГрегор, Родриго Санторо, Ноа Эммерик, Бойд Холбрук, Алекс Манетт, Тодд Стэшвик, Джеймс Барнетт, Сэм Куинн
Сюжет фильма:
Головорезы МакКэна преследуют попытавшегося отбиться от банды Хэма. Изрешеченный пулями, он укрывается на ранчо своей красавицы-жены Джейн. Ей приходится обратиться за защитой к тому, кого она хотела бы видеть меньше всего, — к своему бывшему любовнику. Джейн нужно забыть прошлое, совладать с чувствами и стать сильной и бескомпромиссной, чтобы спасти семью от расправы банды наемников.

  • Мировая премьера: 31 декабря 2015
  • Российская премьера: 17 марта 2016


Качество видео: BDRip [исх. Jane.Got.a.Gun.2015.1080p.BluRay.AVC.DTS-HD.MA.5.1]

Продолжительность: 01:37:59
Формат: AVI
Видео: XviD, 720x304 (2.35:1), 23.976 fps, 1672 kbps
Аудио: русский, дублированный (лицензия), AC3 5.1, 48 kHz, 448 kbps

Код:

Формат                                   : AVI
Формат/Информация                        : Audio Video Interleave
Размер файла                             : 1,46 Гбайт
Продолжительность                        : 1 ч. 37 м.
Общий поток                              : 2129 Кбит/сек
Программа кодирования                    : VirtualDubMod 1.5.10.2 (build 2540/release)
Библиотека кодирования                   : VirtualDubMod build 2540/release

Видео
Идентификатор                            : 0
Формат                                   : MPEG-4 Visual
Профиль формата                          : Advanced Simple@L5
Параметр BVOP формата                    : 2
Параметр QPel формата                    : Нет
Параметр GMC формата                     : Без точки перехода
Параметр матрицы формата                 : Выборочная
Идентификатор кодека                     : XVID
Идентификатор кодека/Подсказка           : XviD
Продолжительность                        : 1 ч. 37 м.
Битрейт                                  : 1672 Кбит/сек
Ширина                                   : 720 пикселей
Высота                                   : 304 пикселя
Соотношение сторон                       : 2,35:1
Частота кадров                           : 23,976 кадра/сек
Цветовое пространство                    : YUV
Субдискретизация насыщенности            : 4:2:0
Битовая глубина                          : 8 бит
Тип развёртки                            : Прогрессивная
Метод сжатия                             : С потерями
Бит/(Пиксели*Кадры)                      : 0.319
Размер потока                            : 1,14 Гбайт (79%)
Библиотека кодирования                   : XviD 1.2.1 (UTC 2008-12-04)

Аудио
Идентификатор                            : 1
Формат                                   : AC-3
Формат/Информация                        : Audio Coding 3
Расширение режима                        : CM (complete main)
Параметр Endianness формата              : Big
Идентификатор кодека                     : 2000
Продолжительность                        : 1 ч. 37 м.
Вид битрейта                             : Постоянный
Битрейт                                  : 448 Кбит/сек
Каналы                                   : 6 каналов
Расположение каналов                     : Front: L C R, Side: L R, LFE
Частота                                  : 48,0 КГц
Битовая глубина                          : 16 бит
Метод сжатия                             : С потерями
Размер потока                            : 314 Мбайт (21%)
Выравнивание                             : Разделение по промежуткам
Продолжительность промежутка             : 42  мс. (1,00 видеокадр)
Время предзагрузки промежутка            : 500  мс.
Релиз:

picpicpicpicpic
Для увеличения картинки щелкните мышкой по превью

Этот торрент недоступен для скачивания без регистрации, однако доступен по публичной magnet-ссылке (источники с публичных трекеров). Перед использованием ссылки прочтите, пожалуйста Пользовательское соглашение, а также как можно дольше оставайтесь на раздаче! Для того, чтобы скачать сам торрент-файл (который видит больше источников), а также для того, чтобы поблагодарить релизера, вам необходимо зарегистрироваться. Если регистрироваться лень - вы можете также попробовать скачать релиз по нашим партнерским ссылкам ниже.

[underverse.su].t65357.torrent
Трекер: Зарегистрирован   [ 21.04.2016 22:25 ]  

Статус: проверено (by makkol at 23.04.2016 22:02)
Поблагодарили: пока никто не поблагодарил...
Тип торрента: публичный - доступные источники с открытых трекеров: 
Размер: 1,46 GB (занимает 0,33 DVDR, для записи нужно 1 болванка DVDR/RW)
 
 
Похожие темы
Форум Тема Автор Торрент Отв. Посл. сооб.
Зарубежное кино [DVDRip, Low-Res HDRip, и т.д.] Джейн берет ружье / Jane Got a Gun (Гэвин О’Коннор) [2015 г., боевик, драма, вестерн, HDRip] DVO makkol
22 | 0

1 | 899

29

01.04.2016 23:13

Зарубежное кино [DVDRip, Low-Res HDRip, и т.д.] Джейн берет ружье / Jane Got a Gun (Гэвин О’Коннор . Gavin O'Connor) [2015 г., боевик, драма, вестерн, BDRip-AVC] Dub 90ytr90
7 | 3

0 | 542

3

20.05.2016 09:32

Зарубежное кино [HDDVDRip / BDRip / WEB-DL / HDTV 1080/720р] Джейн берет ружье / Jane Got a Gun (Гэвин О’Коннор) [2015 г., боевик, драма, вестерн, BDRip 720p] DVO + Original makkol
0 | 0

2 | 1014

6

02.04.2016 11:16

Зарубежное кино [HDDVDRip / BDRip / WEB-DL / HDTV 1080/720р] Джейн берет ружье / Jane Got a Gun (Гэвин О’Коннор) [2015 г., боевик, драма, вестерн, BDRip 1080p] DVO + Original makkol
0 | 4

0 | 614

18

02.04.2016 11:25

Зарубежное кино [HDDVDRip / BDRip / WEB-DL / HDTV 1080/720р] Джейн берет ружье / Jane Got a Gun (Гэвин О’Коннор) [2015 г., боевик, драма, вестерн, BDRip 720p] Dub + Original makkol
23 | 1

0 | 691

3

23.04.2016 22:11

Зарубежное кино [HDDVDRip / BDRip / WEB-DL / HDTV 1080/720р] Джейн берет ружье / Jane Got a Gun (Гэвин О’Коннор) [2015 г., боевик, драма, вестерн, BDRip 1080p] Dub + Original makkol
4 | 0

0 | 322

3

25.04.2016 23:43

Зарубежное кино [HDDVDRip / BDRip / WEB-DL / HDTV 1080/720р] Джейн берет ружье / Jane Got a Gun (Гэвин О’Коннор . Gavin O'Connor) [2015 г., боевик, драма, вестерн, BDRip 720p] Dub 90ytr90
29 | 1

0 | 536

6

20.05.2016 09:37


Яндекс.Метрика powered by Sphinx


В Н И М А Н И Е
Сайт не распространяет и не хранит электронные версии произведений, а лишь бесплатно и без коммерческой выгоды (не требуя взамен платы,
SMS и т.д.) предоставляет доступ к создаваемому пользователями каталогу ссылок на торрент-файлы, которые содержат только списки хеш-сумм.
Убедительная просьба с жалобами обращаться напрямую к пользователю, разместившему торрент файл.

Вверх