Loading...
Error

Наедине со всеми - Алиса Фрейндлих [2016 г., Тв-Шоу, биография, интервью, SatRip]

Статистика раздачи
Размер:  622 MB   |    Зарегистрирован:  7 месяцев   |    Скачан:  1 раз

Полного источника не было: 5 месяцев 25 дней

Сидов:  0  |  0 KB/s  ]   Личеров:  0  |  0 KB/s  ]

* - сиды/пиры с внешних источников

   
 
Автор Сообщение

ARI71 Пол:Муж

21-Апр-2016 17:24

Наедине со всеми - Алиса Фрейндлих


Год выпуска: 2016
Жанр: Тв-Шоу, биография, интервью
Страна: Россия Первый канал
В ролях: Алиса Фрейндлих
Сюжет фильма:
Проект Юлии Меньшовой “Наедине со всеми” - это “интимная” беседа на самые сокровенные темы, которые, как правило, знаменитости предпочитают избегать. Девиз этой передачи - нарисовать для зрителей наиболее полный и правдивый портрет гостя программы. И для этого ведущая делает всё возможное, чтобы создать для своего собеседника максимально комфортную атмосферу.

Али́са Бру́новна Фре́йндлих (род. 8 декабря 1934, Ленинград) — советская и российская актриса театра и кино, певица. Народная артистка СССР (1981). Лауреат четырёх Государственных премий Российской Федерации (1976, 1996, 2001, 2008).

Качество видео: SatRip

Продолжительность: 00:44:52
Формат: AVI
Видео: XviD, 704x448, ~1799 kbps
Аудио: русский, (оригинал), AC3 2.0, ~128.00 kbps

Код:

Общее
Полное имя : D:\Naedine.So.Vsemi(21.04.2016).avi
Формат : AVI
Формат/Информация : Audio Video Interleave
Размер файла : 622 Мбайт
Продолжительность : 44 м.
Общий поток : 1937 Кбит/сек
Программа кодирования : VirtualDubMod 1.5.10.3 | www.virtualdub-fr.org || (build 2550/release)
Библиотека кодирования : VirtualDubMod build 2550/release

Видео
Идентификатор : 0
Формат : MPEG-4 Visual
Профиль формата : Advanced Simple@L5
Параметр BVOP формата : 2
Параметр QPel формата : Нет
Параметр GMC формата : Без точки перехода
Параметр матрицы формата : Default (H.263)
Идентификатор кодека : XVID
Идентификатор кодека/Подсказка : XviD
Продолжительность : 44 м.
Битрейт : 1799 Кбит/сек
Ширина : 704 пикселя
Высота : 448 пикселей
Соотношение сторон : 16:10
Частота кадров : 25,000 кадров/сек
Цветовое пространство : YUV
Субдискретизация насыщенности : 4:2:0
Битовая глубина : 8 бит
Тип развёртки : Прогрессивная
Метод сжатия : С потерями
Бит/(Пиксели*Кадры) : 0.228
Размер потока : 577 Мбайт (93%)
Библиотека кодирования : XviD 1.2.1 (UTC 2008-12-04)

Аудио
Идентификатор : 1
Формат : AC-3
Формат/Информация : Audio Coding 3
Расширение режима : CM (complete main)
Параметр Endianness формата : Big
Идентификатор кодека : 2000
Продолжительность : 44 м.
Вид битрейта : Постоянный
Битрейт : 128 Кбит/сек
Каналы : 2 канала
Расположение каналов : Front: L R
Частота : 48,0 КГц
Метод сжатия : С потерями
Размер потока : 41,1 Мбайт (7%)
Выравнивание : Разделение по промежуткам
Продолжительность промежутка : 40 мс. (1,00 видеокадр)
Время предзагрузки промежутка : 500 мс.
picpicpicpic
Для увеличения картинки щелкните мышкой по превью

Этот торрент недоступен для скачивания без регистрации, однако доступен по публичной magnet-ссылке (источники с публичных трекеров). Перед использованием ссылки прочтите, пожалуйста Пользовательское соглашение, а также как можно дольше оставайтесь на раздаче! Для того, чтобы скачать сам торрент-файл (который видит больше источников), а также для того, чтобы поблагодарить релизера, вам необходимо зарегистрироваться. Если регистрироваться лень - вы можете также попробовать скачать релиз по нашим партнерским ссылкам ниже.

[underverse.su].t65348.torrent
Трекер: Зарегистрирован   [ 21.04.2016 17:24 ]  

Статус: проверено (by makkol at 21.04.2016 21:38)
Поблагодарили: пока никто не поблагодарил...
Тип торрента: публичный - доступные источники с открытых трекеров: 
Размер: 622 MB (занимает 0,14 DVDR, для записи нужно 1 болванка DVDR/RW)
 
 

Яндекс.Метрика powered by Sphinx


В Н И М А Н И Е
Сайт не распространяет и не хранит электронные версии произведений, а лишь бесплатно и без коммерческой выгоды (не требуя взамен платы,
SMS и т.д.) предоставляет доступ к создаваемому пользователями каталогу ссылок на торрент-файлы, которые содержат только списки хеш-сумм.
Убедительная просьба с жалобами обращаться напрямую к пользователю, разместившему торрент файл.

Вверх