Loading...
Error

LEGO Скуби-ду: Призрачный Голливуд / Lego Scooby-Doo!: Haunted Hollywood (Рик Моралес) [2016 г., мультфильм, комедия, семейный, WEB-DLRip] DVO

Статистика раздачи
Размер:  1,37 GB   |    Зарегистрирован:  7 месяцев   |    Скачан:  17 раз

Полного источника не было: 14 часов

Сидов:  0  |  0 KB/s  ]   Личеров:  0  |  0 KB/s  ]

* - сиды/пиры с внешних источников

   
 
Автор Сообщение

makkol Пол:Муж

21-Апр-2016 14:16

LEGO Скуби-ду: Призрачный Голливуд
Lego Scooby-Doo!: Haunted Hollywood


Год выпуска: 2016
Жанр: мультфильм, комедия, семейный
Производство: США [Warner Bros. Animation]
Режиссер: Рик Моралес
Роли озвучивали: Грэй Гриффин, Мэттью Лиллард, Фрэнк Уэлкер
Сюжет фильма:
О, Голливуд! Блеск, гламур... И Всадник без головы? Отправляйтесь вместе с любимцем зрителей Скуби-ду и другими членами корпорации "Тайна" - в святая святых киносъемки - в легендарные голливудские студии. То, что начнется как обычная экскурсия станет настоящим детективным расследованием наших друзей! Город наполнен призраками и монстрами из знаменитых кинолент, и им предстоит выяснить причину происходящего...

  • Мировая премьера: 3 мая 2016


Качество видео: WEB-DLRip

Продолжительность: 01:15:13
Формат: AVI
Видео: XviD, 720x400 (16:9), 23.976 fps, 2145 kbps
Аудио: русский, любительский двухголосый закадровый, AC3 2.0, 48 kHz, 448 kbps

Код:

Формат                                   : AVI
Формат/Информация                        : Audio Video Interleave
Размер файла                             : 1,37 Гбайт
Продолжительность                        : 1 ч. 14 м.
Общий поток                              : 2602 Кбит/сек
Программа кодирования                    : VirtualDubMod 1.5.10.2 (build 2540/release)
Библиотека кодирования                   : VirtualDubMod build 2540/release

Видео
Идентификатор                            : 0
Формат                                   : MPEG-4 Visual
Профиль формата                          : Advanced Simple@L5
Параметр BVOP формата                    : 2
Параметр QPel формата                    : Нет
Параметр GMC формата                     : Без точки перехода
Параметр матрицы формата                 : Выборочная
Идентификатор кодека                     : XVID
Идентификатор кодека/Подсказка           : XviD
Продолжительность                        : 1 ч. 15 м.
Битрейт                                  : 2145 Кбит/сек
Ширина                                   : 720 пикселей
Высота                                   : 400 пикселей
Соотношение сторон                       : 16:9
Частота кадров                           : 23,976 кадра/сек
Цветовое пространство                    : YUV
Субдискретизация насыщенности            : 4:2:0
Битовая глубина                          : 8 бит
Тип развёртки                            : Прогрессивная
Метод сжатия                             : С потерями
Бит/(Пиксели*Кадры)                      : 0.311
Размер потока                            : 1,13 Гбайт (82%)
Библиотека кодирования                   : XviD 1.2.1 (UTC 2008-12-04)

Аудио
Идентификатор                            : 1
Формат                                   : AC-3
Формат/Информация                        : Audio Coding 3
Расширение режима                        : CM (complete main)
Параметр Endianness формата              : Big
Идентификатор кодека                     : 2000
Продолжительность                        : 1 ч. 15 м.
Вид битрейта                             : Постоянный
Битрейт                                  : 448 Кбит/сек
Каналы                                   : 2 канала
Расположение каналов                     : Front: L R
Частота                                  : 48,0 КГц
Битовая глубина                          : 16 бит
Метод сжатия                             : С потерями
Размер потока                            : 241 Мбайт (17%)
Выравнивание                             : Разделение по промежуткам
Продолжительность промежутка             : 42  мс. (1,00 видеокадр)
Время предзагрузки промежутка            : 500  мс.
Присутствует реклама


picpicpicpicpic
Для увеличения картинки щелкните мышкой по превью

Этот торрент недоступен для скачивания без регистрации, однако доступен по публичной magnet-ссылке (источники с публичных трекеров). Перед использованием ссылки прочтите, пожалуйста Пользовательское соглашение, а также как можно дольше оставайтесь на раздаче! Для того, чтобы скачать сам торрент-файл (который видит больше источников), а также для того, чтобы поблагодарить релизера, вам необходимо зарегистрироваться. Если регистрироваться лень - вы можете также попробовать скачать релиз по нашим партнерским ссылкам ниже.

[underverse.su].t65344.torrent
Трекер: Зарегистрирован   [ 21.04.2016 14:16 ]  

Статус: проверено (by makkol at 21.04.2016 14:24)
Поблагодарили: пока никто не поблагодарил...
Тип торрента: публичный - доступные источники с открытых трекеров: 
Размер: 1,37 GB (занимает 0,31 DVDR, для записи нужно 1 болванка DVDR/RW)
 
 

Яндекс.Метрика powered by Sphinx


В Н И М А Н И Е
Сайт не распространяет и не хранит электронные версии произведений, а лишь бесплатно и без коммерческой выгоды (не требуя взамен платы,
SMS и т.д.) предоставляет доступ к создаваемому пользователями каталогу ссылок на торрент-файлы, которые содержат только списки хеш-сумм.
Убедительная просьба с жалобами обращаться напрямую к пользователю, разместившему торрент файл.

Вверх