Loading...
Error

Невский (1-30 серии из 30) (Андрей Коршунов, Алексей Павлов, Игорь Драка) [2016 г., криминал, боевик, HDTVRip-AVC]

Статистика раздачи
Размер:  20,16 GB   |    Зарегистрирован:  7 месяцев   |    Скачан:  20 раз
Сидов:  1  |  0 KB/s  ]   Личеров:  0  |  0 KB/s  ]

* - сиды/пиры с внешних источников

   
 
Автор Сообщение

nemos Пол:Муж

21-Апр-2016 09:40

Невский


Год выпуска: 2016
Жанр: криминал, боевик
Страна: Россия
Режиссер: Андрей Коршунов, Алексей Павлов, Игорь Драка
В ролях: Антон Васильев, Андрей Гульнев, Сергей Кошонин, Дмитрий Паламарчук, Мария Капустинская, Александр Кудренко, Александр Саюталин, Николай Смирнов, Наталья Дворецкая, Юрий Архангельский, Николай Горшков, Антон Багров, Юрий Филиппов

Сюжет фильма:
Капитан полиции Павел Семенов служит в одном из спальных районов Санкт-Петербурга. Павел привык разнимать пьяные драки и в одиночку входить в притоны наркоманов, чтобы провести очередной арест. Он знает, что если будет думать и рассуждать, его просто убьют. И привык сначала действовать, а потом разбираться, потому что очень хочет остаться в живых, ведь его дома ждут жена Юля и сын Саша… Рискуя жизнью, он спасает дочь бизнесмена. В благодарность Латышев, отец девочки, содействует переводу Павла на Невский проспект, в самый центр большого города, где служить престижно и выгодно…


Качество видео: HDTVRip-AVC

Продолжительность: 00:43:06 серия
Формат: MKV
Видео: MPEG-4 AVC, 1024x576, 2000 kbps
Аудио: русский, AC3 2.0, 192 kbps

Код:

Nevskiy.2014.HDTVRip.AVC.Files-x\Nevskiy.(01.seriya).2014.HDTVRip.AVC.by.Серый1779.Files-x.mkv
   General
      Unique ID : 212026723438463783058881395797238991388 (0x9F82DC8FB92FDCBEA93E2C887FFBCA1C)
      Complete name : D:\На диск Е\фильмы\Nevskiy.2014.HDTVRip.AVC.Files-x\Nevskiy.(01.seriya).2014.HDTVRip.AVC.by.Серый1779.Files-x.mkv
      Format : Matroska
      Format version : Version 2
      File size : 676 MiB
      Duration : 43mn 6s
      Overall bit rate : 2 193 Kbps
      Encoded date : UTC 2016-04-12 04:13:28
      Writing application : mkvmerge v6.1.0 ('Old Devil') built on Mar  4 2013 09:10:42
      Writing library : libebml v1.3.0 + libmatroska v1.4.0
   Video #1
      ID : 1
      Format : AVC
      Format/Info : Advanced Video Codec
      Format profile : High@L4.1
      Format settings, CABAC : Yes
      Format settings, ReFrames : 9 frames
      Codec ID : V_MPEG4/ISO/AVC
      Duration : 43mn 6s
      Bit rate : 2 000 Kbps
      Width : 1 024 pixels
      Height : 576 pixels
      Display aspect ratio : 16:9
      Frame rate mode : Constant
      Frame rate : 25.000 fps
      Color space : YUV
      Chroma subsampling : 4:2:0
      Bit depth : 8 bits
      Scan type : Progressive
      Bits/(Pixel*Frame) : 0.136
      Stream size : 604 MiB (89%)
      Writing library : x264 core 130 r2273 b3065e6
      Encoding settings : cabac=1 / ref=9 / deblock=1:-2:-1 / analyse=0x3:0x133 / me=umh / subme=9 / psy=1 / psy_rd=1.00:0.15 / mixed_ref=1 / me_range=32 / chroma_me=1 / trellis=2 / 8x8dct=1 / cqm=0 / deadzone=21,11 / fast_pskip=0 / chroma_qp_offset=-3 / threads=6 / lookahead_threads=1 / sliced_threads=0 / nr=0 / decimate=1 / interlaced=0 / bluray_compat=0 / constrained_intra=0 / bframes=9 / b_pyramid=2 / b_adapt=2 / b_bias=0 / direct=1 / weightb=1 / open_gop=0 / weightp=2 / keyint=250 / keyint_min=25 / scenecut=40 / intra_refresh=0 / rc=2pass / mbtree=0 / bitrate=2000 / ratetol=1.0 / qcomp=0.60 / qpmin=0 / qpmax=69 / qpstep=4 / cplxblur=20.0 / qblur=0.5 / ip_ratio=1.40 / pb_ratio=1.30 / aq=2:1.00
      Default : Yes
      Forced : No
      Color primaries : BT.709
      Transfer characteristics : BT.709
      Matrix coefficients : BT.709
   Audio #2
      ID : 2
      Format : AC-3
      Format/Info : Audio Coding 3
      Mode extension : CM (complete main)
      Format settings, Endianness : Big
      Codec ID : A_AC3
      Duration : 43mn 6s
      Bit rate mode : Constant
      Bit rate : 192 Kbps
      Channel(s) : 2 channels
      Channel positions : Front: L R
      Sampling rate : 48.0 KHz
      Bit depth : 16 bits
      Compression mode : Lossy
      Stream size : 59.2 MiB (9%)
      Default : Yes
      Forced : No
picpicpicpic
Для увеличения картинки щелкните мышкой по превью

Этот торрент недоступен для скачивания без регистрации, однако доступен по публичной magnet-ссылке (источники с публичных трекеров). Перед использованием ссылки прочтите, пожалуйста Пользовательское соглашение, а также как можно дольше оставайтесь на раздаче! Для того, чтобы скачать сам торрент-файл (который видит больше источников), а также для того, чтобы поблагодарить релизера, вам необходимо зарегистрироваться. Если регистрироваться лень - вы можете также попробовать скачать релиз по нашим партнерским ссылкам ниже.

[underverse.su].t65417.torrent
Трекер: Зарегистрирован   [ 23.04.2016 16:02 ]  

Статус: проверено (by nemos at 23.04.2016 16:02)
Поблагодарили: пока никто не поблагодарил...
Тип торрента: публичный - доступные источники с открытых трекеров: 
Размер: 20,16 GB (занимает 4,6 DVDR, для записи нужно 5 болванок DVDR/RW)
 
 

Яндекс.Метрика powered by Sphinx


В Н И М А Н И Е
Сайт не распространяет и не хранит электронные версии произведений, а лишь бесплатно и без коммерческой выгоды (не требуя взамен платы,
SMS и т.д.) предоставляет доступ к создаваемому пользователями каталогу ссылок на торрент-файлы, которые содержат только списки хеш-сумм.
Убедительная просьба с жалобами обращаться напрямую к пользователю, разместившему торрент файл.

Вверх