Loading...
Error

Гении и злодеи. Трофим Лысенко. Триумф и крах Всесоюзного садовника [2016 г., документальный, биография, наука, история, SatRip]

Статистика раздачи
Размер:  271 MB   |    Зарегистрирован:  7 месяцев   |    Скачан:  1 раз

Полного источника не было: 7 месяцев

Сидов:  0  |  0 KB/s  ]   Личеров:  0  |  0 KB/s  ]

* - сиды/пиры с внешних источников

   
 
Автор Сообщение

ARI71 Пол:Муж

20-Апр-2016 14:29

Гении и злодеи. Трофим Лысенко. Триумф и крах Всесоюзного садовника


Год выпуска: 2016
Жанр: документальный, биография, наука, история
Страна: Россия ООО "Студия просветительских фильмов"
Режиссер: Леонид Мёдов
Сюжет фильма:
Гении и злодеи. Кому обязано человечество нынешним своим существованием в третьем тысячелетии? Гениям или злодеям? Чей вклад больше? Чье влияние сильнее? Отчего «магнитное поле» первых так привлекает вторых? Зависть или объективная необходимость? Страшный вопрос: как связаны гениальность и злодейство и насколько допустимо думать, что они дополняют друг друга?

Трофи́м Дени́сович Лысе́нко — (укр. Трохи́м Дени́сович Лисе́нко; 1898 — 1976) — советский агроном и биолог. Основатель и крупнейший представитель псевдонаучного направления в биологии — мичуринской агробиологии, академик АН СССР (1939), академик АН УССР (1934), академик ВАСХНИЛ (1935). Герой Социалистического Труда (1945). Лауреат трёх Сталинских премий первой степени (1941, 1943, 1949). Награждён восемью орденами Ленина, золотой медалью им. И. И. Мечникова АН СССР (1950).

Качество видео: SatRip

Продолжительность: 00:26:00
Формат: AVI
Видео: XviD, 704x416, ~1319 kbps
Аудио: русский, (оригинал), MP3 2.0, ~128.00 kbps

Код:

Общее
Полное имя : D:\Гении и злодеи.Трофим Лысенко.2016.SATRip.kosta52.avi
Формат : AVI
Формат/Информация : Audio Video Interleave
Размер файла : 271 Мбайт
Продолжительность : 26 м.
Общий поток : 1456 Кбит/сек
Программа кодирования : VirtualDubMod 1.5.10.3 | www.virtualdub-fr.org || (build 2550/release)
Библиотека кодирования : VirtualDubMod build 2550/release

Видео
Идентификатор : 0
Формат : MPEG-4 Visual
Профиль формата : Advanced Simple@L5
Параметр BVOP формата : 2
Параметр QPel формата : Нет
Параметр GMC формата : Без точки перехода
Параметр матрицы формата : Default (MPEG)
Идентификатор кодека : XVID
Идентификатор кодека/Подсказка : XviD
Продолжительность : 26 м.
Битрейт : 1319 Кбит/сек
Ширина : 704 пикселя
Высота : 416 пикселей
Соотношение сторон : 5:3
Частота кадров : 25,000 кадров/сек
Цветовое пространство : YUV
Субдискретизация насыщенности : 4:2:0
Битовая глубина : 8 бит
Тип развёртки : Прогрессивная
Метод сжатия : С потерями
Бит/(Пиксели*Кадры) : 0.180
Размер потока : 245 Мбайт (91%)
Библиотека кодирования : XviD 73

Аудио
Идентификатор : 1
Формат : MPEG Audio
Версия формата : Version 1
Профиль формата : Layer 3
Идентификатор кодека : 55
Идентификатор кодека/Подсказка : MP3
Продолжительность : 26 м.
Вид битрейта : Постоянный
Битрейт : 128 Кбит/сек
Каналы : 2 канала
Частота : 48,0 КГц
Метод сжатия : С потерями
Размер потока : 23,8 Мбайт (9%)
Выравнивание : Соединение по промежуткам
Продолжительность промежутка : 40 мс. (1,00 видеокадр)
Время предзагрузки промежутка : 504 мс.
Библиотека кодирования : LAME3.99r
Настройки программы : -m s -V 4 -q 2 -lowpass 17 -b 128
Релиз группы:

picpicpicpicpic
Для увеличения картинки щелкните мышкой по превью

Этот торрент недоступен для скачивания без регистрации, однако доступен по публичной magnet-ссылке (источники с публичных трекеров). Перед использованием ссылки прочтите, пожалуйста Пользовательское соглашение, а также как можно дольше оставайтесь на раздаче! Для того, чтобы скачать сам торрент-файл (который видит больше источников), а также для того, чтобы поблагодарить релизера, вам необходимо зарегистрироваться. Если регистрироваться лень - вы можете также попробовать скачать релиз по нашим партнерским ссылкам ниже.

[underverse.su].t65286.torrent
Трекер: Зарегистрирован   [ 20.04.2016 14:29 ]  

Статус: проверено (by makkol at 20.04.2016 14:42)
Поблагодарили: пока никто не поблагодарил...
Тип торрента: публичный - доступные источники с открытых трекеров: 
Размер: 271 MB (занимает 0,06 DVDR, для записи нужно 1 болванка DVDR/RW)
 
 
Похожие темы
Форум Тема Автор Торрент Отв. Посл. сооб.
Личности Гении и Злодеи. Чарли Чаплин (Ольга Арлаускас) [2009 г., документальный, биография, история, кинематограф, SatRip] ARI71
1 | 0

0 | 97

0

07.11.2016 10:36

Личности Гении и злодеи. Сергей Образцов. Человек который играл в куклы (Юлия Маврина) [2016 г., документальный, биография, театр, искусство, SatRip] ARI71
2 | 0

1 | 208

1

02.11.2016 17:13

Личности Гении и злодеи. Николай Рерих. Зов Шамбалы [2016 г., документальный, биография, искусство, история, SatRip] ARI71
1 | 1

0 | 661

5

26.04.2016 17:56

Личности Гении и злодеи уходящей эпохи. Эрнст Неизвестный (Юлия Маврина) [2010 г., документальный, биография, искусство, TVRip] ARI71
0 | 0

0 | 451

0

16.08.2016 19:57

Исторический роман Гении и злодеи [11 книг] [2010-2012 г., проза, историческая книга, FB2] RUS Паукан
1 | 0

0 | 670

18

04.06.2015 15:31


Яндекс.Метрика powered by Sphinx


В Н И М А Н И Е
Сайт не распространяет и не хранит электронные версии произведений, а лишь бесплатно и без коммерческой выгоды (не требуя взамен платы,
SMS и т.д.) предоставляет доступ к создаваемому пользователями каталогу ссылок на торрент-файлы, которые содержат только списки хеш-сумм.
Убедительная просьба с жалобами обращаться напрямую к пользователю, разместившему торрент файл.

Вверх