Loading...
Error

Человек в кадре. Мария Капнист [2009 г., документальный, биография, кинематограф, TVRip]

Статистика раздачи
Размер:  418 MB   |    Зарегистрирован:  7 месяцев   |    Скачан:  0 раз

Полного источника не было: 6 месяцев

Сидов:  0  |  0 KB/s  ]   Личеров:  0  |  0 KB/s  ]

* - сиды/пиры с внешних источников

   
 
Автор Сообщение

ARI71 Пол:Муж

19-Апр-2016 16:24

Человек в кадре. Мария Капнист


Год выпуска: 2009
Жанр: документальный, биография, кинематограф
Страна: Россия ЗАО "Первый канал. Всемирная сеть"
Режиссер: Анна Филимонова
Сюжет фильма:
Фильм из цикла «Человек в кадре» посвящен последней украинской графине, актрисе Марии Капнист.

Ее судьба трагична и прекрасна. Представительница легендарного дворянского рода, она воспитывалась в высокодуховной семье, общалась с удивительными людьми, выступала перед Шаляпиным, который дружил с ее родителями. Но после революции отца Марии расстреляли, а саму актрису сослали в ГУЛАГ. Около 20 лет Капнист провела на лесоповалах, в шахтах, на рудниках — на самых тяжелых работах. Голод, издевательства и избиения не сломили дух графини. Она читала каторжанкам стихи, разыгрывала перед ними пьесы, а сценические костюмы шила ее близкая подруга — Анна Темирева, любимая женщина Колчака. Вернувшись из лагерей, Мария Капнист начала много сниматься в кино: «Олеся», «Руслан и Людмила», «Бронзовая птица», «Шанс», играла графинь, ведьм, таинственных старух. Ее выразительный облик притягивал режиссеров. Добрый и удивительно дружелюбный человек, Мария Ростиславовна оставила глубокий след в сердцах всех, кто ее знал.
О жизни и работах актрисы рассказывают народная артистка СССР Людмила Чурсина, режиссер Георгий Юнгвальд-Хилькевич, актер Владимир Федоров и дочь актрисы Радислава Капнист.

Мария Ростиславовна Капнист (Капнист-Серко; 22 марта (4 апреля) 1914, Петербург — 25 октября 1993, Киев) — советская и украинская актриса, заслуженная артистка Украинской ССР (1988).
Потомственная дворянка, графиня, относится к потомкам поэта Василия Васильевича Капниста (1758−1823) и кошевого атамана Запорожской Сечи Ивана Сирко.

Качество видео: TVRip

Продолжительность: 00:30:07
Формат: AVI
Видео: DivX 5, 704x528, ~1800 kbps
Аудио: русский, (оригинал), MP3 2.0, ~128.00 kbps

Код:

Общее
Полное имя : D:\Капнист Мария.avi
Формат : AVI
Формат/Информация : Audio Video Interleave
Размер файла : 418 Мбайт
Продолжительность : 30 м.
Общий поток : 1938 Кбит/сек
Библиотека кодирования : VirtualDub build 30091/release

Видео
Идентификатор : 0
Формат : MPEG-4 Visual
Параметр BVOP формата : Нет
Параметр QPel формата : Нет
Параметр GMC формата : Без точки перехода
Параметр матрицы формата : Default (H.263)
Идентификатор кодека : DX50
Идентификатор кодека/Подсказка : DivX 5
Продолжительность : 30 м.
Битрейт : 1800 Кбит/сек
Ширина : 704 пикселя
Высота : 528 пикселей
Соотношение сторон : 4:3
Частота кадров : 25,000 кадров/сек
Цветовое пространство : YUV
Субдискретизация насыщенности : 4:2:0
Битовая глубина : 8 бит
Тип развёртки : Прогрессивная
Метод сжатия : С потерями
Бит/(Пиксели*Кадры) : 0.194
Размер потока : 388 Мбайт (93%)
Библиотека кодирования : DivX 5.2.1 (DrDivX 106) (UTC 2004-09-08)

Аудио
Идентификатор : 1
Формат : MPEG Audio
Версия формата : Version 1
Профиль формата : Layer 3
Режим : Joint stereo
Расширение режима : MS Stereo
Идентификатор кодека : 55
Идентификатор кодека/Подсказка : MP3
Продолжительность : 30 м.
Вид битрейта : Постоянный
Битрейт : 128 Кбит/сек
Каналы : 2 канала
Частота : 48,0 КГц
Метод сжатия : С потерями
Задержка видео : 8 мс.
Размер потока : 27,6 Мбайт (7%)
Выравнивание : Разделение по промежуткам
Продолжительность промежутка : 40 мс. (1,00 видеокадр)
Время предзагрузки промежутка : 500 мс.
picpicpicpicpic
Для увеличения картинки щелкните мышкой по превью

Этот торрент недоступен для скачивания без регистрации, однако доступен по публичной magnet-ссылке (источники с публичных трекеров). Перед использованием ссылки прочтите, пожалуйста Пользовательское соглашение, а также как можно дольше оставайтесь на раздаче! Для того, чтобы скачать сам торрент-файл (который видит больше источников), а также для того, чтобы поблагодарить релизера, вам необходимо зарегистрироваться. Если регистрироваться лень - вы можете также попробовать скачать релиз по нашим партнерским ссылкам ниже.

[underverse.su].t65261.torrent
Трекер: Зарегистрирован   [ 19.04.2016 16:24 ]  

Статус: проверено (by makkol at 19.04.2016 21:11)
Поблагодарили: пока никто не поблагодарил...
Тип торрента: публичный - доступные источники с открытых трекеров: 
Размер: 418 MB (занимает 0,09 DVDR, для записи нужно 1 болванка DVDR/RW)
 
 
Похожие темы
Форум Тема Автор Торрент Отв. Посл. сооб.
T Зарубежные сериалы Человек в высоком замке / The Man in the High Castle / Сезон 1 (1-3 серии из 12) (Дэниэл Персивал, Дэвид Семел) [2015 г., Фантастика, триллер, драма, экранизация, WEBRip] MVO (BaibaKo) + Original ultarasbarcelona
2 | 1

0 | 456

5

23.11.2015 10:13

T Зарубежные сериалы [BD / Remux / BDRip / WEB-DL / HDTV 1080/720р] Человек в высоком замке / The Man in the High Castle / Сезон 1 (1-3 серии из 12) (Дэниэл Персивал, Дэвид Семел) [2015 г., Фантастика, триллер, драма, экранизация, WEBRip 720p] MVO (BaibaKo) + Original ultarasbarcelona
3 | 0

0 | 436

4

23.11.2015 09:31

T Зарубежные сериалы [BD / Remux / BDRip / WEB-DL / HDTV 1080/720р] Человек в высоком замке / The Man in the High Castle / Сезон 1 (1-3 серии из 12) (Дэвид Семел) [2015 г., Фантастика, триллер, драма, WEBRip 720p] MVO (NewStudio) + Original ultarasbarcelona
0 | 0

0 | 541

3

23.11.2015 10:43


Яндекс.Метрика powered by Sphinx


В Н И М А Н И Е
Сайт не распространяет и не хранит электронные версии произведений, а лишь бесплатно и без коммерческой выгоды (не требуя взамен платы,
SMS и т.д.) предоставляет доступ к создаваемому пользователями каталогу ссылок на торрент-файлы, которые содержат только списки хеш-сумм.
Убедительная просьба с жалобами обращаться напрямую к пользователю, разместившему торрент файл.

Вверх