Loading...
Error

Как уходили кумиры. Алексей Каплер [2005 г., документальный, биография, TVRip]

Статистика раздачи
Размер:  152 MB   |    Зарегистрирован:  7 месяцев   |    Скачан:  1 раз

Полного источника не было: 7 месяцев

Сидов:  0  |  0 KB/s  ]   Личеров:  0  |  0 KB/s  ]

* - сиды/пиры с внешних источников

   
 
Автор Сообщение

ARI71 Пол:Муж

19-Апр-2016 13:11

Как уходили кумиры. Алексей Каплер


Год выпуска: 2005
Жанр: документальный, биография
Страна: Россия ДТВ
Режиссер: Михаил Роговой
Сюжет фильма:
Они уходили по-разному. Кто-то молодым, в самом расцвете сил. Кто-то прожил долго и плодотворно. Одни были счастливы, другие не успели сделать и половины. В телевизионном документальном сериале "Как уходили кумиры" - рассказ о наших выдающихся артистах, режиссерах, поэтах, телеведущих, спортсменах и мастеров спорта. Об их судьбах, о линиях жизни, которые, увы, закончились...

Алексей Яковлевич Ка́плер — (Лазарь Яковлевич Каплер; 28 сентября (11 октября) 1903 года, Киев — 11 сентября 1979 года, Москва) — советский кинодраматург, в 1966—72 гг. бессменный ведущий программы «Кинопанорама».
Участвовал в написании сценариев к фильмам «Три товарища», «Ленин в Октябре», «Ленин в 1918 году», «Она защищает Родину», «Полосатый рейс», «Человек-амфибия» и др.
Кавалер ордена Ленина (1938). Лауреат Сталинской премии первой степени (1941). Заслуженный деятель искусств РСФСР (1969).

Качество видео: TVRip

Продолжительность: 00:18:57
Формат: AVI
Видео: XviD, 640x480, ~979 kbps
Аудио: русский, (оригинал), MP3 (mono), ~128.00 kbps

Код:

Общее
Полное имя : D:\KakUhodili.kumiry.AlexeyKapler.avi
Формат : AVI
Формат/Информация : Audio Video Interleave
Размер файла : 152 Мбайт
Продолжительность : 18 м.
Общий поток : 1120 Кбит/сек
Программа кодирования : Nandub v1.0rc2
Библиотека кодирования : Nandub build 1852/release

Видео
Идентификатор : 0
Формат : MPEG-4 Visual
Профиль формата : Advanced Simple@L5
Параметр BVOP формата : 2
Параметр QPel формата : Да
Параметр GMC формата : Без точки перехода
Параметр матрицы формата : Выборочная
Идентификатор кодека : XVID
Идентификатор кодека/Подсказка : XviD
Продолжительность : 18 м.
Битрейт : 979 Кбит/сек
Ширина : 640 пикселей
Высота : 480 пикселей
Соотношение сторон : 4:3
Частота кадров : 25,000 кадров/сек
Цветовое пространство : YUV
Субдискретизация насыщенности : 4:2:0
Битовая глубина : 8 бит
Тип развёртки : Прогрессивная
Метод сжатия : С потерями
Бит/(Пиксели*Кадры) : 0.127
Размер потока : 133 Мбайт (87%)
Библиотека кодирования : XviD 1.2.0.dev47 (UTC 2006-11-01)

Аудио
Идентификатор : 1
Формат : MPEG Audio
Версия формата : Version 1
Профиль формата : Layer 3
Идентификатор кодека : 55
Идентификатор кодека/Подсказка : MP3
Продолжительность : 18 м.
Вид битрейта : Постоянный
Битрейт : 128 Кбит/сек
Каналы : 1 канал
Частота : 48,0 КГц
Метод сжатия : С потерями
Размер потока : 17,4 Мбайт (11%)
Выравнивание : Соединение по промежуткам
Продолжительность промежутка : 24 мс. (0,60 видеокадр)
Время предзагрузки промежутка : 480 мс.
Библиотека кодирования : LAME3.98a
Настройки программы : -m m -V 4 -q 2 -lowpass 20.5 -b 128
picpicpicpicpic
Для увеличения картинки щелкните мышкой по превью

Этот торрент недоступен для скачивания без регистрации, однако доступен по публичной magnet-ссылке (источники с публичных трекеров). Перед использованием ссылки прочтите, пожалуйста Пользовательское соглашение, а также как можно дольше оставайтесь на раздаче! Для того, чтобы скачать сам торрент-файл (который видит больше источников), а также для того, чтобы поблагодарить релизера, вам необходимо зарегистрироваться. Если регистрироваться лень - вы можете также попробовать скачать релиз по нашим партнерским ссылкам ниже.

[underverse.su].t65251.torrent
Трекер: Зарегистрирован   [ 19.04.2016 13:11 ]  

Статус: проверено (by makkol at 24.04.2016 22:07)
Поблагодарили: пока никто не поблагодарил...
Тип торрента: публичный - доступные источники с открытых трекеров: 
Размер: 152 MB (занимает 0,03 DVDR, для записи нужно 1 болванка DVDR/RW)
 
 
Похожие темы
Форум Тема Автор Торрент Отв. Посл. сооб.
Личности Как уходили кумиры. Игорь Тальков [2007 г., документальный, биография, TVRip] ARI71
0 | 0

1 | 526

2

18.04.2016 09:57

Личности Как уходили кумиры. Артем Боровик [2006 г., документальный, биография, TVRip] ARI71
0 | 0

0 | 422

2

31.03.2016 06:45

Личности Как уходили кумиры. Виктор Цой [2005 г., документальный, биография, TVRip] ARI71
1 | 0

0 | 504

8

31.03.2016 10:12


Яндекс.Метрика powered by Sphinx


В Н И М А Н И Е
Сайт не распространяет и не хранит электронные версии произведений, а лишь бесплатно и без коммерческой выгоды (не требуя взамен платы,
SMS и т.д.) предоставляет доступ к создаваемому пользователями каталогу ссылок на торрент-файлы, которые содержат только списки хеш-сумм.
Убедительная просьба с жалобами обращаться напрямую к пользователю, разместившему торрент файл.

Вверх