Loading...
Error

Не бойся, я с тобой! 1919 (Юлий Гусман) [2013 г., боевик, приключения, HDTVRip]

Статистика раздачи
Размер:  1,56 GB   |    Зарегистрирован:  7 месяцев   |    Скачан:  78 раз

Полного источника не было: 3 часа

Сидов:  0  |  0 KB/s  ]   Личеров:  0  |  0 KB/s  ]

* - сиды/пиры с внешних источников

   
 
Автор Сообщение

makkol Пол:Муж

18-Апр-2016 23:16

Не бойся, я с тобой! 1919


Год выпуска: 2013
Жанр: боевик, приключения
Производство: Россия , Азербайджан [Группа компаний «ВайТ Медиа», «Азербайджанфильм» им. Дж. Джабарлы]
Режиссер: Юлий Гусман
В ролях: Полад Бюль-Бюль оглы, Лев Дуров, Мухтарбек Кантемиров, Эльдар Гасымов, Бахрам Багирзаде, Михаил Ефремов, Кристина Гюлалиева, Тимур Бадалбейли, Игорь Золотовицкий, Заур Шафиев, Владимир Долинский, Гамида Омарова, Анатолий Равикович, Лейла Бюль-Бюль, Эдгард Запашный, Галина Коньшина, Гаджимурад Ягизаров, Дмитрий Быков, Мабут Магеррамов, Тахир Иманов, Джабир Иманов, Нюбар Новрузова, Нурия Ахмедли, Николай Ефремов (II)
Сюжет фильма:
Жизнь разметала друзей: Теймур стал депутатом азербайджанского независимого парламента, Рустам служит в Красной армии, а всеми любимый Сан Саныч осуществил наконец свою мечту и, поселившись в маленьком доме на берегу теплого Каспийского моря, открыл школу восточных единоборств. Друзей разделяют километры, границы и идеологии. Но неожиданно у Теймура похищают дочь Ширин. И вновь, как и 30 лет назад, три «рыцаря без страха и упрека» воссоединяются, помогая освободить девушку и дать возможность двум влюбленным людям, Фархаду и Ширин, детям непримиримых врагов, обрести свое счастье.

  • Российская премьера: 20 ноября 2014


Качество видео: HDTVRip

Продолжительность: 01:49:26
Формат: AVI
Видео: XviD, 720x400 (16:9), 25.000 fps, 1844 kbps
Аудио: русский, оригинал, AC3 2.0, 48 kHz, 192 kbps

Код:

Формат                                   : AVI
Формат/Информация                        : Audio Video Interleave
Размер файла                             : 1,56 Гбайт
Продолжительность                        : 1 ч. 49 м.
Общий поток                              : 2045 Кбит/сек
Программа кодирования                    : VirtualDubModRus 1.5.10.2 (build 2542/release)
Библиотека кодирования                   : VirtualDubMod build 2542/release

Видео
Идентификатор                            : 0
Формат                                   : MPEG-4 Visual
Профиль формата                          : Advanced Simple@L5
Параметр BVOP формата                    : 1
Параметр QPel формата                    : Нет
Параметр GMC формата                     : Без точки перехода
Параметр матрицы формата                 : Выборочная
Идентификатор кодека                     : XVID
Идентификатор кодека/Подсказка           : XviD
Продолжительность                        : 1 ч. 49 м.
Битрейт                                  : 1844 Кбит/сек
Ширина                                   : 720 пикселей
Высота                                   : 400 пикселей
Соотношение сторон                       : 16:9
Частота кадров                           : 25,000 кадров/сек
Цветовое пространство                    : YUV
Субдискретизация насыщенности            : 4:2:0
Битовая глубина                          : 8 бит
Тип развёртки                            : Прогрессивная
Метод сжатия                             : С потерями
Бит/(Пиксели*Кадры)                      : 0.256
Размер потока                            : 1,41 Гбайт (90%)
Библиотека кодирования                   : XviD 73

Аудио
Идентификатор                            : 1
Формат                                   : AC-3
Формат/Информация                        : Audio Coding 3
Расширение режима                        : CM (complete main)
Параметр Endianness формата              : Big
Идентификатор кодека                     : 2000
Продолжительность                        : 1 ч. 49 м.
Вид битрейта                             : Постоянный
Битрейт                                  : 192 Кбит/сек
Каналы                                   : 2 канала
Расположение каналов                     : Front: L R
Частота                                  : 48,0 КГц
Частота кадров                           : 31,250 кадров/сек (1536 spf)
Метод сжатия                             : С потерями
Размер потока                            : 150 Мбайт (9%)
Выравнивание                             : Разделение по промежуткам
Продолжительность промежутка             : 40  мс. (1,00 видеокадр)
Время предзагрузки промежутка            : 500  мс.
Релиз от:

picpicpicpicpic
Для увеличения картинки щелкните мышкой по превью

Этот торрент недоступен для скачивания без регистрации, однако доступен по публичной magnet-ссылке (источники с публичных трекеров). Перед использованием ссылки прочтите, пожалуйста Пользовательское соглашение, а также как можно дольше оставайтесь на раздаче! Для того, чтобы скачать сам торрент-файл (который видит больше источников), а также для того, чтобы поблагодарить релизера, вам необходимо зарегистрироваться. Если регистрироваться лень - вы можете также попробовать скачать релиз по нашим партнерским ссылкам ниже.

[underverse.su].t65240.torrent
Трекер: Зарегистрирован   [ 18.04.2016 23:16 ]  

Статус: проверено (by makkol at 19.04.2016 23:53)
Поблагодарили: 1 человек
Тип торрента: публичный - доступные источники с открытых трекеров: 
Размер: 1,56 GB (занимает 0,36 DVDR, для записи нужно 1 болванка DVDR/RW)
 
 
Похожие темы
Форум Тема Автор Торрент Отв. Посл. сооб.
Наше кино [HDDVDRip / BDRip / WEB-DL / HDTV 1080/720р] Не бойся, я с тобой! 1919 (Юлий Гусман) [2013 г., боевик, приключения, HDTVRip 720p] makkol
10 | 0

0 | 1182

55

18.04.2016 23:24

Наше кино [HDDVDRip / BDRip / WEB-DL / HDTV 1080/720р] Не бойся, я с тобой! 1919 (Юлий Гусман) [2016 г., боевик, приключения, HDTV 1080i] makkol
8 | 0

0 | 534

13

19.04.2016 11:28

Архив Не бойся, я с тобой! (ТВ) (Юлий Гусман) [1981 г., боевик, комедия, мелодрама, мюзикл, приключения, DVDRip] Shudrenko
0 | 1

5 | 1337

3

16.06.2011 08:08


Яндекс.Метрика powered by Sphinx


В Н И М А Н И Е
Сайт не распространяет и не хранит электронные версии произведений, а лишь бесплатно и без коммерческой выгоды (не требуя взамен платы,
SMS и т.д.) предоставляет доступ к создаваемому пользователями каталогу ссылок на торрент-файлы, которые содержат только списки хеш-сумм.
Убедительная просьба с жалобами обращаться напрямую к пользователю, разместившему торрент файл.

Вверх