Loading...
Error

8 лучших свиданий (Марюс Вайсберг) [2016 г., комедия, мелодрама, WEB-DLRip]

Статистика раздачи
Размер:  1,37 GB   |    Зарегистрирован:  7 месяцев   |    Скачан:  60 раз

Полного источника не было: 6 часов

Сидов:  0  |  0 KB/s  ]   Личеров:  0  |  0 KB/s  ]

* - сиды/пиры с внешних источников

   
 
Автор Сообщение

makkol Пол:Муж

18-Апр-2016 11:05

8 лучших свиданий
«Ищу мужа своей жене»


Год выпуска: 2016
Жанр: комедия, мелодрама
Страна: Россия [Kvartal 95 Studio]
Режиссер: Марюс Вайсберг
В ролях: Владимир Зеленский, Вера Брежнева, Владимир Епифанцев, Евгений Кошевой, Сергей Казанин, Нино Кантария, Виктор Щур, Мария Ивакова
Сюжет фильма:
Одним солнечным днем преуспевающий владелец ветклиники Никита узнает, что неизлечимо болен. Он не подозревает, что это врачебная ошибка, и всерьез задумывается: кто же позаботится о его прекрасных жене, детях и бизнесе?.. И тут в его голову приходит мысль, что, как это ни прискорбно, кажется, пора подыскивать себе замену.

  • Мировая премьера: 4 марта 2016
  • Российская премьера: 3 марта 2016


Качество видео: WEB-DLRip

Продолжительность: 01:32:56
Формат: AVI
Видео: XviD, 720x400 (16:9), 25.000 fps, 1907 kbps
Аудио: русский, оригинал, AC3 2.0, 48 kHz, 192 kbps

Код:

Формат                                   : AVI
Формат/Информация                        : Audio Video Interleave
Размер файла                             : 1,37 Гбайт
Продолжительность                        : 1 ч. 32 м.
Общий поток                              : 2109 Кбит/сек
Название фильма                          : rustorrents.info
Программа кодирования                    : VirtualDubMod 1.5.10.3 | www.virtualdub-fr.org || (build 2550/release)

Видео
Идентификатор                            : 0
Формат                                   : MPEG-4 Visual
Профиль формата                          : Advanced Simple@L5
Параметр BVOP формата                    : 2
Параметр QPel формата                    : Нет
Параметр GMC формата                     : Без точки перехода
Параметр матрицы формата                 : Выборочная
Идентификатор кодека                     : XVID
Идентификатор кодека/Подсказка           : XviD
Продолжительность                        : 1 ч. 32 м.
Битрейт                                  : 1907 Кбит/сек
Ширина                                   : 720 пикселей
Высота                                   : 400 пикселей
Соотношение сторон                       : 16:9
Частота кадров                           : 25,000 кадров/сек
Цветовое пространство                    : YUV
Субдискретизация насыщенности            : 4:2:0
Битовая глубина                          : 8 бит
Тип развёртки                            : Прогрессивная
Метод сжатия                             : С потерями
Бит/(Пиксели*Кадры)                      : 0.265
Размер потока                            : 1,24 Гбайт (90%)
Библиотека кодирования                   : XviD 1.2.1 (UTC 2008-12-04)

Аудио
Идентификатор                            : 1
Формат                                   : AC-3
Формат/Информация                        : Audio Coding 3
Расширение режима                        : CM (complete main)
Параметр Endianness формата              : Big
Идентификатор кодека                     : 2000
Продолжительность                        : 1 ч. 32 м.
Вид битрейта                             : Постоянный
Битрейт                                  : 192 Кбит/сек
Каналы                                   : 2 канала
Расположение каналов                     : Front: L R
Частота                                  : 48,0 КГц
Битовая глубина                          : 16 бит
Метод сжатия                             : С потерями
Размер потока                            : 128 Мбайт (9%)
Выравнивание                             : Разделение по промежуткам
Продолжительность промежутка             : 40  мс. (1,00 видеокадр)
Время предзагрузки промежутка            : 500  мс.
Релиз без рекламы


picpicpicpicpic
Для увеличения картинки щелкните мышкой по превью

Этот торрент недоступен для скачивания без регистрации, однако доступен по публичной magnet-ссылке (источники с публичных трекеров). Перед использованием ссылки прочтите, пожалуйста Пользовательское соглашение, а также как можно дольше оставайтесь на раздаче! Для того, чтобы скачать сам торрент-файл (который видит больше источников), а также для того, чтобы поблагодарить релизера, вам необходимо зарегистрироваться. Если регистрироваться лень - вы можете также попробовать скачать релиз по нашим партнерским ссылкам ниже.

[underverse.su].t65228.torrent
Трекер: Зарегистрирован   [ 18.04.2016 11:05 ]  

Статус: T временная (by makkol at 19.04.2016 23:47)
Поблагодарили: 1 человек
Тип торрента: публичный - доступные источники с открытых трекеров: 
Размер: 1,37 GB (занимает 0,31 DVDR, для записи нужно 1 болванка DVDR/RW)
 
 
Похожие темы
Форум Тема Автор Торрент Отв. Посл. сооб.
T Наше кино [HDDVDRip / BDRip / WEB-DL / HDTV 1080/720р] 8 лучших свиданий (Марюс Вайсберг) [2016 г., комедия, мелодрама, WEB-DL 720p] makkol
1 | 0

0 | 929

60

18.04.2016 11:14

T Наше кино [HDDVDRip / BDRip / WEB-DL / HDTV 1080/720р] 8 лучших свиданий (Марюс Вайсберг) [2016 г., комедия, мелодрама, WEB-DL 1080p] makkol
170 | 3

0 | 567

28

19.04.2016 14:26

T Новинки кино [CAMRip, TS, DVDScr, WP, TC] 8 лучших свиданий (Марюс Вайсберг) [2016 г., комедия, мелодрама, TS] makkol
8 | 0

0 | 723

45

06.04.2016 23:05


Яндекс.Метрика powered by Sphinx


В Н И М А Н И Е
Сайт не распространяет и не хранит электронные версии произведений, а лишь бесплатно и без коммерческой выгоды (не требуя взамен платы,
SMS и т.д.) предоставляет доступ к создаваемому пользователями каталогу ссылок на торрент-файлы, которые содержат только списки хеш-сумм.
Убедительная просьба с жалобами обращаться напрямую к пользователю, разместившему торрент файл.

Вверх