Loading...
Error

Острова. Александр Алов [2013 г., документальный, биография, кинематограф, SatRip]

Статистика раздачи
Размер:  437 MB   |    Зарегистрирован:  7 месяцев   |    Скачан:  3 раза

Полного источника не было: 1 день 13 часов

Сидов:  0  |  0 KB/s  ]   Личеров:  0  |  0 KB/s  ]

* - сиды/пиры с внешних источников

   
 
Автор Сообщение

ARI71 Пол:Муж

18-Апр-2016 10:23

Острова. Александр Алов


Год выпуска: 2013
Жанр: документальный, биография, кинематограф
Страна: Россия "Культура"
Режиссер: Андрей Судиловский
В ролях: Владимир Наумов, Любовь Алова, Василий Лановой
Сюжет фильма:
Фильм рассказывает о малоизвестных фактах из жизни знаменитого кинорежиссера Александра Александровича Алова. Авторы фильма попытались создать портрет режиссёра, опираясь на его собственное творчество - художественные картины, а так же на уникальные воспоминания близких ему людей. В фильме принимают участие ближайший друг Владимир Наумов, дочь Любовь Алова и актер Василий Лановой.

Алекса́ндр Алекса́ндрович А́лов (настоящая фамилия — Ла́пскер; 1923—1983) — советский украинский и российский кинорежиссёр, сценарист, педагог. Лауреат Государственной премии СССР (1985 — посмертно). Народный артист СССР (1983)

Качество видео: SatRip

Продолжительность: 00:39:39
Формат: AVI
Видео: XviD, 704x528, ~1398 kbps
Аудио: русский, (оригинал), MP3 2.0, ~128.00 kbps

Код:

Общее
Полное имя : D:\Острова. Александр Алов.2013.SATRip.avi
Формат : AVI
Формат/Информация : Audio Video Interleave
Размер файла : 437 Мбайт
Продолжительность : 39 м.
Общий поток : 1539 Кбит/сек
Библиотека кодирования : TMPGEnc 4.0 XPress Version. 4.7.7.307

Видео
Идентификатор : 0
Формат : MPEG-4 Visual
Профиль формата : Simple@L1
Параметр BVOP формата : Нет
Параметр QPel формата : Нет
Параметр GMC формата : Без точки перехода
Параметр матрицы формата : Default (H.263)
Идентификатор кодека : XVID
Идентификатор кодека/Подсказка : XviD
Продолжительность : 39 м.
Битрейт : 1398 Кбит/сек
Ширина : 704 пикселя
Высота : 528 пикселей
Соотношение сторон : 4:3
Частота кадров : 25,000 кадров/сек
Цветовое пространство : YUV
Субдискретизация насыщенности : 4:2:0
Битовая глубина : 8 бит
Тип развёртки : Прогрессивная
Метод сжатия : С потерями
Бит/(Пиксели*Кадры) : 0.150
Размер потока : 397 Мбайт (91%)
Библиотека кодирования : Lavc52.92.0

Аудио
Идентификатор : 1
Формат : MPEG Audio
Версия формата : Version 1
Профиль формата : Layer 3
Режим : Joint stereo
Расширение режима : MS Stereo
Идентификатор кодека : 55
Идентификатор кодека/Подсказка : MP3
Продолжительность : 39 м.
Вид битрейта : Постоянный
Битрейт : 128 Кбит/сек
Каналы : 2 канала
Частота : 48,0 КГц
Метод сжатия : С потерями
Размер потока : 36,3 Мбайт (8%)
Выравнивание : Соединение по промежуткам
Продолжительность промежутка : 40 мс. (1,00 видеокадр)
Время предзагрузки промежутка : 384 мс.
Релиз группы:

picpicpicpicpic
Для увеличения картинки щелкните мышкой по превью

Этот торрент недоступен для скачивания без регистрации, однако доступен по публичной magnet-ссылке (источники с публичных трекеров). Перед использованием ссылки прочтите, пожалуйста Пользовательское соглашение, а также как можно дольше оставайтесь на раздаче! Для того, чтобы скачать сам торрент-файл (который видит больше источников), а также для того, чтобы поблагодарить релизера, вам необходимо зарегистрироваться. Если регистрироваться лень - вы можете также попробовать скачать релиз по нашим партнерским ссылкам ниже.

[underverse.su].t65227.torrent
Трекер: Зарегистрирован   [ 18.04.2016 10:23 ]  

Статус: проверено (by makkol at 18.04.2016 10:27)
Поблагодарили: пока никто не поблагодарил...
Тип торрента: публичный - доступные источники с открытых трекеров: 
Размер: 437 MB (занимает 0,1 DVDR, для записи нужно 1 болванка DVDR/RW)
 
 
Похожие темы
Форум Тема Автор Торрент Отв. Посл. сооб.
Личности Острова. Александр Галич [2016 г., документальный, биография, SatRip] ARI71
1 | 0

0 | 722

7

16.04.2016 19:55


Яндекс.Метрика powered by Sphinx


В Н И М А Н И Е
Сайт не распространяет и не хранит электронные версии произведений, а лишь бесплатно и без коммерческой выгоды (не требуя взамен платы,
SMS и т.д.) предоставляет доступ к создаваемому пользователями каталогу ссылок на торрент-файлы, которые содержат только списки хеш-сумм.
Убедительная просьба с жалобами обращаться напрямую к пользователю, разместившему торрент файл.

Вверх