Loading...
Error

Линия жизни. Алексей Леонов [2016 г., документальный, ток-шоу, биография, SatRip]

Статистика раздачи
Размер:  624 MB   |    Зарегистрирован:  7 месяцев   |    Скачан:  3 раза

Полного источника не было: 1 день 13 часов

Сидов:  0  |  0 KB/s  ]   Личеров:  0  |  0 KB/s  ]

* - сиды/пиры с внешних источников

   
 
Автор Сообщение

ARI71 Пол:Муж

17-Апр-2016 20:27

Линия жизни. Алексей Леонов


Год выпуска: 2016
Жанр: документальный, ток-шоу, биография
Страна: Россия ГТРК "Культура"
Режиссер: Ольга Татушкина
В ролях: Алексей Леонов
Сюжет фильма:
Судьба упорно выдвигала его быть первым. Этот летчик-испытатель прошел отбор из 3,5 тысяч претендентов в первый отряд космонавтов, он первый вышел в открытый космос, первый - на международной стыковке кораблей, и именно он должен был стать первым человеком на Луне. В студии программы "Линия жизни" - летчик-космонавт, дважды Герой Советского Союза Алексей Леонов.

Алексе́й Архи́пович Лео́нов (род. 30 мая 1934 года, село Листвянка, Тисульский район, Западно-Сибирский край, РСФСР, СССР) — советский космонавт № 11, первый человек, вышедший в открытый космос. Дважды Герой Советского Союза (1965, 1975). Лауреат Государственной премии СССР (1981).

Качество видео: SatRip

Продолжительность: 00:59:59
Формат: AVI
Видео: XviD, 704x416, ~1316 kbps
Аудио: русский, (оригинал), MP3 2.0, ~128.00 kbps

Код:

Общее
Полное имя : D:\Линия жизни. Аексей Леонов.2016.SATRip.kosta52.avi
Формат : AVI
Формат/Информация : Audio Video Interleave
Размер файла : 624 Мбайт
Продолжительность : 59 м.
Общий поток : 1453 Кбит/сек
Программа кодирования : VirtualDubMod 1.5.10.3 | www.virtualdub-fr.org || (build 2550/release)
Библиотека кодирования : VirtualDubMod build 2550/release

Видео
Идентификатор : 0
Формат : MPEG-4 Visual
Профиль формата : Advanced Simple@L5
Параметр BVOP формата : 2
Параметр QPel формата : Нет
Параметр GMC формата : Без точки перехода
Параметр матрицы формата : Default (MPEG)
Идентификатор кодека : XVID
Идентификатор кодека/Подсказка : XviD
Продолжительность : 59 м.
Битрейт : 1316 Кбит/сек
Ширина : 704 пикселя
Высота : 416 пикселей
Соотношение сторон : 5:3
Частота кадров : 25,000 кадров/сек
Цветовое пространство : YUV
Субдискретизация насыщенности : 4:2:0
Битовая глубина : 8 бит
Тип развёртки : Прогрессивная
Метод сжатия : С потерями
Бит/(Пиксели*Кадры) : 0.180
Размер потока : 565 Мбайт (91%)
Библиотека кодирования : XviD 73

Аудио
Идентификатор : 1
Формат : MPEG Audio
Версия формата : Version 1
Профиль формата : Layer 3
Идентификатор кодека : 55
Идентификатор кодека/Подсказка : MP3
Продолжительность : 59 м.
Вид битрейта : Постоянный
Битрейт : 128 Кбит/сек
Каналы : 2 канала
Частота : 48,0 КГц
Метод сжатия : С потерями
Размер потока : 54,9 Мбайт (9%)
Выравнивание : Соединение по промежуткам
Продолжительность промежутка : 40 мс. (1,00 видеокадр)
Время предзагрузки промежутка : 504 мс.
Библиотека кодирования : LAME3.99r
Настройки программы : -m s -V 4 -q 2 -lowpass 17 -b 128
picpicpicpic
Для увеличения картинки щелкните мышкой по превью

Этот торрент недоступен для скачивания без регистрации, однако доступен по публичной magnet-ссылке (источники с публичных трекеров). Перед использованием ссылки прочтите, пожалуйста Пользовательское соглашение, а также как можно дольше оставайтесь на раздаче! Для того, чтобы скачать сам торрент-файл (который видит больше источников), а также для того, чтобы поблагодарить релизера, вам необходимо зарегистрироваться. Если регистрироваться лень - вы можете также попробовать скачать релиз по нашим партнерским ссылкам ниже.

[underverse.su].t65220.torrent
Трекер: Зарегистрирован   [ 17.04.2016 20:27 ]  

Статус: проверено (by makkol at 18.04.2016 10:25)
Поблагодарили: 1 человек
Тип торрента: публичный - доступные источники с открытых трекеров: 
Размер: 624 MB (занимает 0,14 DVDR, для записи нужно 1 болванка DVDR/RW)
 
 
Похожие темы
Форум Тема Автор Торрент Отв. Посл. сооб.
Личности Линия жизни. Ефим Шифрин [2016 г., документальный, биография, культура, искусство, SatRip] ARI71
1 | 0

0 | 673

3

02.04.2016 14:20


Яндекс.Метрика powered by Sphinx


В Н И М А Н И Е
Сайт не распространяет и не хранит электронные версии произведений, а лишь бесплатно и без коммерческой выгоды (не требуя взамен платы,
SMS и т.д.) предоставляет доступ к создаваемому пользователями каталогу ссылок на торрент-файлы, которые содержат только списки хеш-сумм.
Убедительная просьба с жалобами обращаться напрямую к пользователю, разместившему торрент файл.

Вверх