Loading...
Error

Лунные скитальцы [2016 г., документальный, космос, история, SatRip]

Статистика раздачи
Размер:  512 MB   |    Зарегистрирован:  7 месяцев   |    Скачан:  32 раза
Сидов:  2  |  0 KB/s  ]   Личеров:  0  |  0 KB/s  ]

* - сиды/пиры с внешних источников

   
 
Автор Сообщение

ARI71 Пол:Муж

17-Апр-2016 19:03

Лунные скитальцы


Год выпуска: 2016
Жанр: документальный, космос, история
Страна: Россия Телеканал "Россия-Культура"
Сюжет фильма:
17 ноября 1970 года космический аппарат "Луна-17" доставил "Луноход-1" в Море Дождей. На следующий день водитель Вячеслав Довгань, поздравляя супругу с днем рождения, написал в телеграмме: "Дорогая Светлана, дарю тебе свой первый след на Луне". Впрочем, два последних слова из соображений секретности пришлось вычеркнуть. Имена земных экипажей луноходов не назывались в печати до 1993 года. В 1970 году в газете "Правда" была опубликована статья, посвященная достижениям советской космонавтики, и в ней об экипажах было сказано лишь: "…это молодые, подтянутые ребята в синих элегантных костюмах спортивного покроя со значками на отворотах рубашек, где рубиновыми буквами было написано "СССР". В фильме принимают участие создатели луноходов и ветераны воздушно-космических сил, управлявшие этими удивительными машинами.
Качество видео: SatRip

Продолжительность: 00:39:16
Формат: AVI
Видео: XviD, 720x384, ~1686 kbps
Аудио: русский, (оригинал), MP3 2.0, ~128.00 kbps

Код:

Общее
Полное имя : D:\Lunnye skital_cy.avi
Формат : AVI
Формат/Информация : Audio Video Interleave
Размер файла : 512 Мбайт
Продолжительность : 39 м.
Общий поток : 1823 Кбит/сек
Программа кодирования : VirtualDubMod 1.5.10.3 | www.virtualdub-fr.org || (build 2550/release)
Библиотека кодирования : VirtualDubMod build 2550/release

Видео
Идентификатор : 0
Формат : MPEG-4 Visual
Профиль формата : Simple@L1
Параметр BVOP формата : Нет
Параметр QPel формата : Нет
Параметр GMC формата : Без точки перехода
Параметр матрицы формата : Default (H.263)
Идентификатор кодека : XVID
Идентификатор кодека/Подсказка : XviD
Продолжительность : 39 м.
Битрейт : 1686 Кбит/сек
Ширина : 720 пикселей
Высота : 384 пикселя
Соотношение сторон : 1,85:1
Частота кадров : 25,000 кадров/сек
Цветовое пространство : YUV
Субдискретизация насыщенности : 4:2:0
Битовая глубина : 8 бит
Тип развёртки : Прогрессивная
Метод сжатия : С потерями
Бит/(Пиксели*Кадры) : 0.244
Размер потока : 474 Мбайт (92%)
Библиотека кодирования : Lavc53.33.0

Аудио
Идентификатор : 1
Формат : MPEG Audio
Версия формата : Version 1
Профиль формата : Layer 3
Идентификатор кодека : 55
Идентификатор кодека/Подсказка : MP3
Продолжительность : 39 м.
Вид битрейта : Постоянный
Битрейт : 128 Кбит/сек
Каналы : 2 канала
Частота : 48,0 КГц
Метод сжатия : С потерями
Размер потока : 36,0 Мбайт (7%)
Выравнивание : Соединение по промежуткам
Продолжительность промежутка : 40 мс. (1,00 видеокадр)
Время предзагрузки промежутка : 504 мс.
Библиотека кодирования : LAME3.99r
Настройки программы : -m s -V 4 -q 2 -lowpass 17 -b 128
picpicpicpicpic
Для увеличения картинки щелкните мышкой по превью

Этот торрент недоступен для скачивания без регистрации, однако доступен по публичной magnet-ссылке (источники с публичных трекеров). Перед использованием ссылки прочтите, пожалуйста Пользовательское соглашение, а также как можно дольше оставайтесь на раздаче! Для того, чтобы скачать сам торрент-файл (который видит больше источников), а также для того, чтобы поблагодарить релизера, вам необходимо зарегистрироваться. Если регистрироваться лень - вы можете также попробовать скачать релиз по нашим партнерским ссылкам ниже.

[underverse.su].t65217.torrent
Трекер: Зарегистрирован   [ 17.04.2016 19:03 ]  

Статус: проверено (by makkol at 18.04.2016 10:21)
Поблагодарили: 2 человека
Тип торрента: публичный - доступные источники с открытых трекеров: 
Размер: 512 MB (занимает 0,11 DVDR, для записи нужно 1 болванка DVDR/RW)
 
 

ARI71 Пол:Муж

18-Апр-2016 12:43

Релиз скачало 5 человек. К скачавшим просьба поддержать раздачу и дальше! Я с раздачи схожу. По всем вопросам и просьбам прошу обращаться в ЛС. Приятного просмотра!

dargot54 Пол:Муж

24-Апр-2016 20:25

Спасибо. Интересный фильм.

AbramchikDif

14-Июн-2016 23:15

Я считаю, что Вы не правы. Я уверен. Могу отстоять свою позицию. Пишите мне в PM, обсудим.

Яндекс.Метрика powered by Sphinx


В Н И М А Н И Е
Сайт не распространяет и не хранит электронные версии произведений, а лишь бесплатно и без коммерческой выгоды (не требуя взамен платы,
SMS и т.д.) предоставляет доступ к создаваемому пользователями каталогу ссылок на торрент-файлы, которые содержат только списки хеш-сумм.
Убедительная просьба с жалобами обращаться напрямую к пользователю, разместившему торрент файл.

Вверх